快捷导航
查看: 34|回复: 12

[悬疑] 毛骨悚然 Creepy.2016.JAPANESE.1080p.BluRay.x264.DTS-WiKi 13.20GB

[复制链接]
  • TA的每日心情

    前天 21:35
  • 签到天数: 89 天

    [LV.6]常住居民II

    1929

    主题

    2020

    帖子

    4183

    积分

    发布组

    积分
    4183
    发表于 6 天前 | 显示全部楼层 |阅读模式
    1. 帖子完整标题:毛骨悚然 Creepy.2016.JAPANESE.1080p.BluRay.x264.DTS-WiKi 13.20GB
    复制代码
    毛骨悚然 Creepy.2016.JAPANESE.1080p.BluRay.x264.DTS-WiKi 13.20GB-1.png


    译  名 毛骨悚然/Creepy/クリーピー 偽りの隣人/怪邻居(港)/恐怖邻人(台)/邻家怪吓(港)
    片  名 クリーピー
    年  代 2016
    产  地 日本
    类  别 剧情 / 悬疑 / 惊悚
    语  言 日语
    上映日期 2016-02-13(柏林电影节) / 2016-06-18(日本)
    IMDb评分  6.3/10 from 3910 users
    IMDb链接  https://www.imdb.com/title/tt4900708/
    豆瓣评分 5.9/10 from 7455 users
    豆瓣链接 https://movie.douban.com/subject/26581083/
    片  长 130分钟
    导  演 黑泽清 Kiyoshi Kurosawa
    编  剧 黑泽清 Kiyoshi Kurosawa / 池田千寻 Chihiro Ikeda / 前川裕 Yutaka Maekawa
    主  演 西岛秀俊 Hidetoshi Nishijima
           竹内结子 Y?ko Takeuchi
           川口春奈 Haruna Kawaguchi
           东出昌大 Masahiro Higashide
           香川照之 Teruyuki Kagawa
           藤野凉子 Ryoko Fujino
           户田昌宏 Masahiro Toda
           马场彻 Toru Baba
           笹野高史 Takashi Sasano

    标  签 日本 | 悬疑 | 惊悚 | 犯罪 | 2016 | 心理 | 恐怖 | 西岛俊秀

    简  介

      前警视厅搜查一课刑警高仓(西岛秀俊 饰),在一次意外后转行成为某大学犯罪心理学教授。不久前,他和妻子康子(竹内结子 饰)搬到新家居住。不过新家周围的邻居似乎过于冷漠,特别是姓西野(香川照之 饰)的男子,总感觉拒人千里之外。当然不久后西野便向高仓夫妇展现他们友好的一面,这让鲜少与人交流的康子颇感欣慰。与此同时,高仓和搜查一课的旧同事野上(东出昌大 饰)对一桩三人失踪案展开调查。随着不断地深入,他们发现了令人震惊的事实。黑暗不断吞噬着试图接近它的人,高仓回首望去,惊讶地意识到从搬到新家开始,他便不知不觉落入了贪婪蚁狮所精心布下的死亡陷阱……
      
      本片根据前川裕的同名原作改编。
    1. Video
    2. ID                                       : 1
    3. Format                                   : AVC
    4. Format/Info                              : Advanced Video Codec
    5. Format profile                           : High@L4
    6. Format settings, CABAC                   : Yes
    7. Format settings, ReFrames                : 5 frames
    8. Codec ID                                 : V_MPEG4/ISO/AVC
    9. Duration                                 : 2h 10mn
    10. Bit rate                                 : 13.0 Mbps
    11. Width                                    : 1 920 pixels
    12. Height                                   : 804 pixels
    13. Display aspect ratio                     : 2.40:1
    14. Frame rate mode                          : Constant
    15. Frame rate                               : 23.976 (24000/1001) fps
    16. Color space                              : YUV
    17. Chroma subsampling                       : 4:2:0
    18. Bit depth                                : 8 bits
    19. Scan type                                : Progressive
    20. Bits/(Pixel*Frame)                       : 0.351
    21. Stream size                              : 11.8 GiB (89%)
    22. Writing library                          : x264 core 129 r2245+704+36 8e61944 tMod+MixAQ [High@L4:2:0 X86_64]
    23. Encoding settings                        : cabac=1 / ref=5 / deblock=1:-3:-3 / analyse=0x3:0x133 / me=umh / subme=11 / psy=1 / fade_compensate=0.00 / psy_rd=1.05:0.10 / mixed_ref=1 / me_range=64 / chroma_me=1 / trellis=2 / 8x8dct=1 / cqm=0 / deadzone=21,11 / fast_pskip=0 / chroma_qp_offset=-3 / threads=12 / lookahead_threads=2 / sliced_threads=0 / nr=0 / decimate=0 / interlaced=0 / bluray_compat=0 / constrained_intra=0 / fgo=0 / bframes=10 / b_pyramid=2 / b_adapt=2 / b_bias=0 / direct=3 / weightb=1 / open_gop=0 / weightp=2 / keyint=250 / keyint_min=23 / scenecut=40 / intra_refresh=0 / rc_lookahead=80 / rc=2pass / mbtree=1 / bitrate=12988 / ratetol=1.0 / qcomp=0.70 / qpmin=0 / qpmax=69 / qpstep=4 / cplxblur=20.0 / qblur=0.5 / ip_ratio=1.40 / aq=1 / aq-strength=0.85 / aq-sensitivity=10.00 / aq-ifactor=1.00 / aq-pfactor=1.00 / aq-bfactor=1.00 / aq2=0
    24. Language                                 : Japanese
    25. Default                                  : Yes
    26. Forced                                   : No

    27. Audio
    28. ID                                       : 2
    29. Format                                   : DTS
    30. Format/Info                              : Digital Theater Systems
    31. Mode                                     : 16
    32. Format settings, Endianness              : Big
    33. Codec ID                                 : A_DTS
    34. Duration                                 : 2h 10mn
    35. Bit rate mode                            : Constant
    36. Bit rate                                 : 1 509 Kbps
    37. Channel(s)                               : 6 channels
    38. Channel positions                        : Front: L C R, Side: L R, LFE
    39. Sampling rate                            : 48.0 KHz
    40. Frame rate                               : 93.750 fps (512 spf)
    41. Bit depth                                : 24 bits
    42. Compression mode                         : Lossy
    43. Stream size                              : 1.37 GiB (10%)
    44. Language                                 : Japanese
    45. Default                                  : Yes
    46. Forced                                   : No

    47. Text #1
    48. ID                                       : 3
    49. Format                                   : ASS
    50. Codec ID                                 : S_TEXT/ASS
    51. Codec ID/Info                            : Advanced Sub Station Alpha
    52. Duration                                 : 2h 7mn
    53. Bit rate                                 : 57 bps
    54. Count of elements                        : 1349
    55. Compression mode                         : Lossless
    56. Stream size                              : 53.8 KiB (0%)
    57. Title                                    : Simplified_JX
    58. Language                                 : Chinese
    59. Default                                  : Yes
    60. Forced                                   : No

    61. Text #2
    62. ID                                       : 4
    63. Format                                   : ASS
    64. Codec ID                                 : S_TEXT/ASS
    65. Codec ID/Info                            : Advanced Sub Station Alpha
    66. Duration                                 : 2h 7mn
    67. Bit rate                                 : 57 bps
    68. Count of elements                        : 1349
    69. Compression mode                         : Lossless
    70. Stream size                              : 53.8 KiB (0%)
    71. Title                                    : Traditional_JX
    72. Language                                 : Chinese
    73. Default                                  : No
    74. Forced                                   : No

    75. Text #3
    76. ID                                       : 5
    77. Format                                   : UTF-8
    78. Codec ID                                 : S_TEXT/UTF8
    79. Codec ID/Info                            : UTF-8 Plain Text
    80. Duration                                 : 2h 5mn
    81. Bit rate                                 : 29 bps
    82. Count of elements                        : 1267
    83. Stream size                              : 26.8 KiB (0%)
    84. Title                                    : Simplified_R3
    85. Language                                 : Chinese
    86. Default                                  : No
    87. Forced                                   : No

    88. Text #4
    89. ID                                       : 6
    90. Format                                   : UTF-8
    91. Codec ID                                 : S_TEXT/UTF8
    92. Codec ID/Info                            : UTF-8 Plain Text
    93. Duration                                 : 2h 5mn
    94. Bit rate                                 : 29 bps
    95. Count of elements                        : 1267
    96. Stream size                              : 26.8 KiB (0%)
    97. Title                                    : Traditional_R3
    98. Language                                 : Chinese
    99. Default                                  : No
    100. Forced                                   : No

    101. Menu
    102. 00:00:00.000                             : en:00:00:00.000
    103. 00:09:58.931                             : en:00:09:58.931
    104. 00:21:14.064                             : en:00:21:14.064
    105. 00:33:08.444                             : en:00:33:08.444
    106. 00:45:41.280                             : en:00:45:41.280
    107. 00:55:55.393                             : en:00:55:55.393
    108. 01:07:24.248                             : en:01:07:24.248
    109. 01:21:49.362                             : en:01:21:49.362
    110. 01:31:18.806                             : en:01:31:18.806
    111. 01:37:24.755                             : en:01:37:24.755
    112. 01:48:05.187                             : en:01:48:05.187
    113. 02:00:32.767                             : en:02:00:32.767
    114. 02:10:15.808                             : en:02:10:15.808
    复制代码

    毛骨悚然 Creepy.2016.JAPANESE.1080p.BluRay.x264.DTS-WiKi 13.20GB-2.png
    毛骨悚然 Creepy.2016.JAPANESE.1080p.BluRay.x264.DTS-WiKi 13.20GB-3.png
    毛骨悚然 Creepy.2016.JAPANESE.1080p.BluRay.x264.DTS-WiKi 13.20GB-4.png
    毛骨悚然 Creepy.2016.JAPANESE.1080p.BluRay.x264.DTS-WiKi 13.20GB-5.png
    毛骨悚然 Creepy.2016.JAPANESE.1080p.BluRay.x264.DTS-WiKi 13.20GB-6.png
    本帖隐藏的内容需要VIP会员才可浏览,您需要升级才可浏览,点击这里升级VIP





    回复

    使用道具 举报

    该用户从未签到

    0

    主题

    1万

    帖子

    1万

    积分

    论坛元老

    Rank: 8Rank: 8

    积分
    16181
    发表于 6 天前 | 显示全部楼层

    是个好电影!必须要看的!多谢分享!
    回复 支持 反对

    使用道具 举报

    该用户从未签到

    0

    主题

    2万

    帖子

    1万

    积分

    论坛元老

    Rank: 8Rank: 8

    积分
    16777
    发表于 6 天前 | 显示全部楼层

    非常精彩的电影,下来收藏,感谢楼主
    回复 支持 反对

    使用道具 举报

    该用户从未签到

    0

    主题

    5428

    帖子

    3498

    积分

    论坛元老

    Rank: 8Rank: 8

    积分
    3498
    发表于 6 天前 | 显示全部楼层
    回复 支持 反对

    使用道具 举报

  • TA的每日心情
    开心
    2016-6-1 14:06
  • 签到天数: 1 天

    [LV.1]初来乍到

    0

    主题

    1017

    帖子

    696

    积分

    高级会员

    Rank: 4

    积分
    696
    发表于 5 天前 | 显示全部楼层
    回复 支持 反对

    使用道具 举报

    该用户从未签到

    0

    主题

    5428

    帖子

    3498

    积分

    论坛元老

    Rank: 8Rank: 8

    积分
    3498
    发表于 5 天前 | 显示全部楼层
    回复 支持 反对

    使用道具 举报

    该用户从未签到

    0

    主题

    1058

    帖子

    581

    积分

    高级会员

    Rank: 4

    积分
    581
    发表于 5 天前 | 显示全部楼层
    回复 支持 反对

    使用道具 举报

  • TA的每日心情
    擦汗
    前天 20:10
  • 签到天数: 53 天

    [LV.5]常住居民I

    0

    主题

    363

    帖子

    989

    积分

    高级会员

    Rank: 4

    积分
    989
    发表于 5 天前 | 显示全部楼层

    我看不错噢 谢谢楼主!蓝光电影网越来越好!
    回复 支持 反对

    使用道具 举报

    该用户从未签到

    0

    主题

    5428

    帖子

    3498

    积分

    论坛元老

    Rank: 8Rank: 8

    积分
    3498
    发表于 5 天前 | 显示全部楼层
    这个帖子不回对不起自己!我想我是一天也不能离开蓝光电影网
    回复 支持 反对

    使用道具 举报

    该用户从未签到

    0

    主题

    3万

    帖子

    2万

    积分

    论坛元老

    Rank: 8Rank: 8

    积分
    26401
    发表于 5 天前 | 显示全部楼层
    回复 支持 反对

    使用道具 举报

    懒得打字嘛,点击右侧快捷回复 【右侧内容,后台自定义】
    您需要登录后才可以回帖 登录 | 立即注册

    本版积分规则

    郑重声明,本站所有作品片源来自互联网公开渠道,均为网友上传交流学习,影视版权均归原电影公司所有,如有侵犯版权,请与 2322694662@qq.com 联系,我们将立即删除。

    小黑屋|手机版|Archiver|百度统计|投诉|蓝光电影下载

    GMT+8, 2021-7-27 17:09 , Processed in 0.102877 second(s), 30 queries , Gzip On, MemCached On.

    Powered by Discuz! X3.4

    © 2001-2013 Comsenz Inc.

    快速回复 返回顶部 返回列表