快捷导航
查看: 49|回复: 14

[剧情] 伤心往事 Kako.My.Sullen.Past.2016.JAPANESE.1080p.BluRay.x264.DTS-WiKi 10.00GB

[复制链接]
  • TA的每日心情

    前天 21:35
  • 签到天数: 80 天

    [LV.6]常住居民II

    1967

    主题

    2047

    帖子

    3907

    积分

    发布组

    积分
    3907
    发表于 6 天前 | 显示全部楼层 |阅读模式
    1. 帖子完整标题:伤心往事 Kako.My.Sullen.Past.2016.JAPANESE.1080p.BluRay.x264.DTS-WiKi 10.00GB
    复制代码
    伤心往事 Kako.My.Sullen.Past.2016.JAPANESE.1080p.BluRay.x264.DTS-WiKi 10.00GB-1.png


    译  名 伤心往事/Fukigen na Kako/Kako: My Sullen Past/不愉快的过去
    片  名 ふきげんな過去
    年  代 2016
    产  地 日本
    类  别 剧情
    语  言 日语
    上映日期 2016-06-11(上海国际电影节) / 2016-06-25(日本)
    IMDb评分  6/10 from 45 users
    IMDb链接  https://www.imdb.com/title/tt5214744/
    豆瓣评分 6.5/10 from 1425 users
    豆瓣链接 https://movie.douban.com/subject/26667645/
    片  长 120分钟
    导  演 前田司郎 Shir? Maeda
    编  剧 前田司郎 Shir? Maeda
    主  演 二阶堂富美 Fumi Nikaidou
           高良健吾 Kengo Kora
           板尾创路 Itsuji Itao
           山田裕贵 Y?ki Yamada
           黑川芽以 Mei Kurokawa
           古关安广 Kitar?
           大竹真 Makoto Otake
           山田望叶 Mochika Yamada
           齐木茂 Shigeru Saiki
           相乐树 Sagara Itsuki

    标  签 日本 | 2016 | 文艺 | 剧情 | 青春 | 2016上海国际电影节 | 亲情 | 生活

    简  介

      本该在18年前去世的阿姨未来子(小泉今日子 饰)毫无征兆地出现在落落寡欢的果子(二阶堂富美 饰)面前,而阿姨的出现让一家人悲喜交加。在果子还是小宝宝的时候,未来子引发了一起炸弹爆炸事件,传说她在混乱中死掉了。面对这个皆大欢喜的场面,果子却和正在上小学的堂妹加奈(山田望叶 饰)冷眼相待。短暂的相处期间,果子敏锐地发现了一些问题。未来子和父亲的关系似乎并不一般,而她和自己的妹妹相处也并不融洽。家人的归来,让平静的生活泛起涟漪。无聊的夏日,果子日常靠观察咖啡店那名神秘男子(高良健吾 饰)解闷。她尝试去问阿姨冒险找死的原因,得到的回答却是“因为我和你一样无聊。”
      
      压抑的生活泥潭,令果子对未来子产生了难以名状的亲近感……
    1. Video
    2. ID                                       : 1
    3. Format                                   : AVC
    4. Format/Info                              : Advanced Video Codec
    5. Format profile                           : High@L4
    6. Format settings, CABAC                   : Yes
    7. Format settings, ReFrames                : 4 frames
    8. Codec ID                                 : V_MPEG4/ISO/AVC
    9. Duration                                 : 2h 0mn
    10. Bit rate                                 : 10.4 Mbps
    11. Width                                    : 1 920 pixels
    12. Height                                   : 1 036 pixels
    13. Display aspect ratio                     : 1.85:1
    14. Frame rate mode                          : Constant
    15. Frame rate                               : 23.976 (24000/1001) fps
    16. Color space                              : YUV
    17. Chroma subsampling                       : 4:2:0
    18. Bit depth                                : 8 bits
    19. Scan type                                : Progressive
    20. Bits/(Pixel*Frame)                       : 0.218
    21. Stream size                              : 8.72 GiB (87%)
    22. Writing library                          : x264 core 129 r2245+704+36 8e61944 tMod+MixAQ [High@L4:2:0 X86_64]
    23. Encoding settings                        : cabac=1 / ref=4 / deblock=1:-3:-3 / analyse=0x3:0x133 / me=umh / subme=11 / psy=1 / fade_compensate=0.00 / psy_rd=1.05:0.10 / mixed_ref=1 / me_range=64 / chroma_me=1 / trellis=2 / 8x8dct=1 / cqm=0 / deadzone=21,11 / fast_pskip=0 / chroma_qp_offset=-3 / threads=18 / lookahead_threads=3 / sliced_threads=0 / nr=0 / decimate=0 / interlaced=0 / bluray_compat=0 / constrained_intra=0 / fgo=0 / bframes=10 / b_pyramid=2 / b_adapt=2 / b_bias=0 / direct=3 / weightb=1 / open_gop=0 / weightp=2 / keyint=250 / keyint_min=23 / scenecut=40 / intra_refresh=0 / rc_lookahead=80 / rc=2pass / mbtree=1 / bitrate=10396 / ratetol=1.0 / qcomp=0.70 / qpmin=0 / qpmax=69 / qpstep=4 / cplxblur=20.0 / qblur=0.5 / ip_ratio=1.40 / aq=1 / aq-strength=0.85 / aq-sensitivity=10.00 / aq-ifactor=1.00 / aq-pfactor=1.00 / aq-bfactor=1.00 / aq2=0
    24. Language                                 : Japanese
    25. Default                                  : Yes
    26. Forced                                   : No

    27. Audio
    28. ID                                       : 2
    29. Format                                   : DTS
    30. Format/Info                              : Digital Theater Systems
    31. Mode                                     : 16
    32. Format settings, Endianness              : Big
    33. Codec ID                                 : A_DTS
    34. Duration                                 : 2h 0mn
    35. Bit rate mode                            : Constant
    36. Bit rate                                 : 1 509 Kbps
    37. Channel(s)                               : 6 channels
    38. Channel positions                        : Front: L C R, Side: L R, LFE
    39. Sampling rate                            : 48.0 KHz
    40. Frame rate                               : 93.750 fps (512 spf)
    41. Bit depth                                : 24 bits
    42. Compression mode                         : Lossy
    43. Stream size                              : 1.27 GiB (13%)
    44. Language                                 : Japanese
    45. Default                                  : Yes
    46. Forced                                   : No

    47. Text
    48. ID                                       : 3
    49. Format                                   : ASS
    50. Codec ID                                 : S_TEXT/ASS
    51. Codec ID/Info                            : Advanced Sub Station Alpha
    52. Duration                                 : 1h 55mn
    53. Bit rate                                 : 87 bps
    54. Count of elements                        : 1617
    55. Compression mode                         : Lossless
    56. Stream size                              : 73.9 KiB (0%)
    57. Language                                 : Chinese
    58. Default                                  : Yes
    59. Forced                                   : No

    60. Menu
    61. 00:00:00.000                             : en:00:00:00.000
    62. 00:11:49.792                             : en:00:11:49.792
    63. 00:16:01.001                             : en:00:16:01.001
    64. 00:25:05.462                             : en:00:25:05.462
    65. 00:35:54.694                             : en:00:35:54.694
    66. 00:41:34.283                             : en:00:41:34.283
    67. 00:48:20.731                             : en:00:48:20.731
    68. 00:59:28.189                             : en:00:59:28.189
    69. 01:06:25.439                             : en:01:06:25.439
    70. 01:09:39.133                             : en:01:09:39.133
    71. 01:30:00.770                             : en:01:30:00.770
    72. 01:32:26.415                             : en:01:32:26.415
    73. 01:42:28.350                             : en:01:42:28.350
    74. 01:47:43.665                             : en:01:47:43.665
    75. 01:52:57.187                             : en:01:52:57.187
    复制代码

    伤心往事 Kako.My.Sullen.Past.2016.JAPANESE.1080p.BluRay.x264.DTS-WiKi 10.00GB-2.png
    伤心往事 Kako.My.Sullen.Past.2016.JAPANESE.1080p.BluRay.x264.DTS-WiKi 10.00GB-3.png
    伤心往事 Kako.My.Sullen.Past.2016.JAPANESE.1080p.BluRay.x264.DTS-WiKi 10.00GB-4.png
    伤心往事 Kako.My.Sullen.Past.2016.JAPANESE.1080p.BluRay.x264.DTS-WiKi 10.00GB-5.png
    伤心往事 Kako.My.Sullen.Past.2016.JAPANESE.1080p.BluRay.x264.DTS-WiKi 10.00GB-6.png
    本帖隐藏的内容需要VIP会员才可浏览,您需要升级才可浏览,点击这里升级VIP





    回复

    使用道具 举报

    该用户从未签到

    0

    主题

    2359

    帖子

    2046

    积分

    金牌会员

    Rank: 6Rank: 6

    积分
    2046
    发表于 6 天前 | 显示全部楼层

    是个好电影!必须要看的!多谢分享!
    回复 支持 反对

    使用道具 举报

    该用户从未签到

    0

    主题

    3万

    帖子

    2万

    积分

    论坛元老

    Rank: 8Rank: 8

    积分
    26401
    发表于 6 天前 | 显示全部楼层
    回复 支持 反对

    使用道具 举报

    该用户从未签到

    0

    主题

    2089

    帖子

    1500

    积分

    金牌会员

    Rank: 6Rank: 6

    积分
    1500
    发表于 6 天前 | 显示全部楼层
    回复 支持 反对

    使用道具 举报

    该用户从未签到

    0

    主题

    2089

    帖子

    1500

    积分

    金牌会员

    Rank: 6Rank: 6

    积分
    1500
    发表于 5 天前 | 显示全部楼层
    楼主太厉害了!楼主,电影应该很好看我觉得蓝光电影下载真是个好地方!
    回复 支持 反对

    使用道具 举报

  • TA的每日心情
    开心
    16 小时前
  • 签到天数: 155 天

    [LV.7]常住居民III

    1

    主题

    536

    帖子

    1846

    积分

    金牌会员

    Rank: 6Rank: 6

    积分
    1846
    发表于 5 天前 | 显示全部楼层
    回复 支持 反对

    使用道具 举报

    该用户从未签到

    0

    主题

    4247

    帖子

    3565

    积分

    论坛元老

    Rank: 8Rank: 8

    积分
    3565
    发表于 5 天前 | 显示全部楼层
    回复 支持 反对

    使用道具 举报

    该用户从未签到

    0

    主题

    3万

    帖子

    2万

    积分

    论坛元老

    Rank: 8Rank: 8

    积分
    26401
    发表于 5 天前 | 显示全部楼层
    回复 支持 反对

    使用道具 举报

    该用户从未签到

    0

    主题

    3万

    帖子

    2万

    积分

    论坛元老

    Rank: 8Rank: 8

    积分
    26401
    发表于 5 天前 | 显示全部楼层
    感谢楼主的无私分享!要想蓝光高清电影网好 就靠你我他
    回复 支持 反对

    使用道具 举报

    该用户从未签到

    0

    主题

    1万

    帖子

    1万

    积分

    论坛元老

    Rank: 8Rank: 8

    积分
    16181
    发表于 5 天前 | 显示全部楼层
    回复 支持 反对

    使用道具 举报

    懒得打字嘛,点击右侧快捷回复 【右侧内容,后台自定义】
    您需要登录后才可以回帖 登录 | 立即注册

    本版积分规则

    郑重声明,本站所有作品片源来自互联网公开渠道,均为网友上传交流学习,影视版权均归原电影公司所有,如有侵犯版权,请与 2322694662@qq.com 联系,我们将立即删除。

    小黑屋|手机版|Archiver|百度统计|投诉|蓝光电影下载

    GMT+8, 2021-7-27 17:12 , Processed in 0.063064 second(s), 27 queries , Gzip On, MemCached On.

    Powered by Discuz! X3.4

    © 2001-2013 Comsenz Inc.

    快速回复 返回顶部 返回列表