快捷导航
查看: 68|回复: 15

[喜剧] 团地 The.Projects.2016.JAPANESE.1080p.BluRay.x264.DTS-WiKi 10.00GB

[复制链接]
  • TA的每日心情

    前天 21:35
  • 签到天数: 80 天

    [LV.6]常住居民II

    1967

    主题

    2047

    帖子

    3907

    积分

    发布组

    积分
    3907
    发表于 6 天前 | 显示全部楼层 |阅读模式
    1. 帖子完整标题:团地 The.Projects.2016.JAPANESE.1080p.BluRay.x264.DTS-WiKi 10.00GB
    复制代码



    译  名 团地/Danchi
    片  名 団地
    年  代 2016
    产  地 日本
    类  别 喜剧 / 科幻 / 悬疑
    语  言 日语
    上映日期 2016-06-04(日本) / 2016-06-13(上海电影节)
    IMDb评分  6.6/10 from 104 users
    IMDb链接  https://www.imdb.com/title/tt4877264/
    豆瓣评分 7.0/10 from 1694 users
    豆瓣链接 https://movie.douban.com/subject/26576697/
    片  长 103分钟
    导  演 阪本顺治 Junji Sakamoto
    编  剧 阪本顺治 Junji Sakamoto
    主  演 藤山直美 Naomi Fujiyama
           岸部一德 Ittoku Kishibe
           大楠道代 Michiyo Ookusu
           石桥莲司 Renji Ishibashi
           斋藤工 Takumi Sait?
           冨浦智嗣 Satoshi Tomiura
           竹内都子 Miyako Takeuchi
           泷裕可里 Yukari Taki
           宅间孝行 Takayuki Takuma
           三浦诚己 Masaki Miura
           磨赤儿 Akaji Maro

    标  签 日本 | 喜剧 | 科幻 | 2016 | 奇幻 | 亲情 | 家庭 | 悬疑

    简  介

      自从唯一的儿子死于车祸后,半辈子经营汉方药局的山下清治(岸部一德 饰)在老伴儿雏子(藤山直美 饰)的建议下关闭店铺,双双搬到了一个老旧而封闭的团地居住。平日里雏子去超市打工,借工作间隙与每位客人攀谈。无所事事的清治则盘桓在附近的树林中,终日观察职务。隔三差五,就有一个神秘的年轻人真城(斋藤工 饰)来到山下家收药。原本就爱传些小道消息的社区妇女,面对山下家迥异于人的举止,便更肆意着他们的猜测了。自治会会长选举失败后,山下清治躲到地板下,决定至死不出。于是未过多久,女人们便猜测雏子已将丈夫杀害并分尸。谣言越传越凶……
      
      本片荣获第19届上海国际电影节金爵奖最佳女主角奖(藤山直美)。

    获奖情况

      第19届上海国际电影节 ?(2016)
      金爵奖最佳影片(提名) 阪本顺治
      金爵奖最佳女演员 藤山直美
    1. Video
    2. ID                                       : 1
    3. Format                                   : AVC
    4. Format/Info                              : Advanced Video Codec
    5. Format profile                           : High@L4
    6. Format settings, CABAC                   : Yes
    7. Format settings, ReFrames                : 4 frames
    8. Codec ID                                 : V_MPEG4/ISO/AVC
    9. Duration                                 : 1h 43mn
    10. Bit rate                                 : 12.3 Mbps
    11. Width                                    : 1 920 pixels
    12. Height                                   : 1 038 pixels
    13. Display aspect ratio                     : 1.85:1
    14. Frame rate mode                          : Constant
    15. Frame rate                               : 23.976 (24000/1001) fps
    16. Color space                              : YUV
    17. Chroma subsampling                       : 4:2:0
    18. Bit depth                                : 8 bits
    19. Scan type                                : Progressive
    20. Bits/(Pixel*Frame)                       : 0.257
    21. Stream size                              : 8.89 GiB (89%)
    22. Writing library                          : x264 core 129 r2245+704+36 8e61944 tMod+MixAQ [High@L4:2:0 X86_64]
    23. Encoding settings                        : cabac=1 / ref=4 / deblock=1:-3:-3 / analyse=0x3:0x133 / me=umh / subme=11 / psy=1 / fade_compensate=0.00 / psy_rd=1.05:0.10 / mixed_ref=1 / me_range=64 / chroma_me=1 / trellis=2 / 8x8dct=1 / cqm=0 / deadzone=21,11 / fast_pskip=0 / chroma_qp_offset=-3 / threads=18 / lookahead_threads=3 / sliced_threads=0 / nr=0 / decimate=0 / interlaced=0 / bluray_compat=0 / constrained_intra=0 / fgo=0 / bframes=10 / b_pyramid=2 / b_adapt=2 / b_bias=0 / direct=3 / weightb=1 / open_gop=0 / weightp=2 / keyint=250 / keyint_min=23 / scenecut=40 / intra_refresh=0 / rc_lookahead=80 / rc=2pass / mbtree=1 / bitrate=12282 / ratetol=1.0 / qcomp=0.70 / qpmin=0 / qpmax=69 / qpstep=4 / cplxblur=20.0 / qblur=0.5 / ip_ratio=1.40 / aq=1 / aq-strength=0.85 / aq-sensitivity=10.00 / aq-ifactor=1.00 / aq-pfactor=1.00 / aq-bfactor=1.00 / aq2=0
    24. Language                                 : Japanese
    25. Default                                  : Yes
    26. Forced                                   : No

    27. Audio
    28. ID                                       : 2
    29. Format                                   : DTS
    30. Format/Info                              : Digital Theater Systems
    31. Mode                                     : 16
    32. Format settings, Endianness              : Big
    33. Codec ID                                 : A_DTS
    34. Duration                                 : 1h 43mn
    35. Bit rate mode                            : Constant
    36. Bit rate                                 : 1 509 Kbps
    37. Channel(s)                               : 6 channels
    38. Channel positions                        : Front: L C R, Side: L R, LFE
    39. Sampling rate                            : 48.0 KHz
    40. Frame rate                               : 93.750 fps (512 spf)
    41. Bit depth                                : 24 bits
    42. Compression mode                         : Lossy
    43. Stream size                              : 1.09 GiB (11%)
    44. Language                                 : Japanese
    45. Default                                  : Yes
    46. Forced                                   : No

    47. Text #1
    48. ID                                       : 3
    49. Format                                   : ASS
    50. Codec ID                                 : S_TEXT/ASS
    51. Codec ID/Info                            : Advanced Sub Station Alpha
    52. Duration                                 : 1h 41mn
    53. Bit rate                                 : 73 bps
    54. Count of elements                        : 1344
    55. Compression mode                         : Lossless
    56. Stream size                              : 54.7 KiB (0%)
    57. Title                                    : Simplified
    58. Language                                 : Chinese
    59. Default                                  : Yes
    60. Forced                                   : No

    61. Text #2
    62. ID                                       : 4
    63. Format                                   : ASS
    64. Codec ID                                 : S_TEXT/ASS
    65. Codec ID/Info                            : Advanced Sub Station Alpha
    66. Duration                                 : 1h 41mn
    67. Bit rate                                 : 73 bps
    68. Count of elements                        : 1344
    69. Compression mode                         : Lossless
    70. Stream size                              : 54.7 KiB (0%)
    71. Title                                    : Traditional
    72. Language                                 : Chinese
    73. Default                                  : No
    74. Forced                                   : No

    75. Menu
    76. 00:00:00.000                             : en:00:00:00.000
    77. 00:10:18.784                             : en:00:10:18.784
    78. 00:16:36.078                             : en:00:16:36.078
    79. 00:28:29.416                             : en:00:28:29.416
    80. 00:34:18.014                             : en:00:34:18.014
    81. 00:46:06.221                             : en:00:46:06.221
    82. 00:57:26.860                             : en:00:57:26.860
    83. 01:11:21.527                             : en:01:11:21.527
    84. 01:26:29.017                             : en:01:26:29.017
    85. 01:43:44.509                             : en:01:43:44.509
    复制代码








    本帖隐藏的内容需要VIP会员才可浏览,您需要升级才可浏览,点击这里升级VIP




    团地 The.Projects.2016.JAPANESE.1080p.BluRay.x264.DTS-WiKi 10.00GB-1.png
    团地 The.Projects.2016.JAPANESE.1080p.BluRay.x264.DTS-WiKi 10.00GB-2.png
    团地 The.Projects.2016.JAPANESE.1080p.BluRay.x264.DTS-WiKi 10.00GB-3.png
    团地 The.Projects.2016.JAPANESE.1080p.BluRay.x264.DTS-WiKi 10.00GB-4.png
    回复

    使用道具 举报

    该用户从未签到

    0

    主题

    165

    帖子

    40

    积分

    新手上路

    Rank: 1

    积分
    40
    发表于 6 天前 | 显示全部楼层
    回复 支持 反对

    使用道具 举报

    该用户从未签到

    0

    主题

    1097

    帖子

    671

    积分

    高级会员

    Rank: 4

    积分
    671
    发表于 6 天前 | 显示全部楼层
    这个帖子不回对不起自己!我想我是一天也不能离开蓝光电影网
    回复 支持 反对

    使用道具 举报

    该用户从未签到

    0

    主题

    1028

    帖子

    626

    积分

    高级会员

    Rank: 4

    积分
    626
    发表于 6 天前 | 显示全部楼层

    是个好电影!必须要看的!多谢分享!
    回复 支持 反对

    使用道具 举报

    该用户从未签到

    0

    主题

    1102

    帖子

    895

    积分

    高级会员

    Rank: 4

    积分
    895
    发表于 5 天前 | 显示全部楼层
    回复 支持 反对

    使用道具 举报

    该用户从未签到

    0

    主题

    3万

    帖子

    2万

    积分

    论坛元老

    Rank: 8Rank: 8

    积分
    26401
    发表于 5 天前 | 显示全部楼层
    回复 支持 反对

    使用道具 举报

  • TA的每日心情
    开心
    15 小时前
  • 签到天数: 155 天

    [LV.7]常住居民III

    1

    主题

    536

    帖子

    1846

    积分

    金牌会员

    Rank: 6Rank: 6

    积分
    1846
    发表于 5 天前 | 显示全部楼层
    回复 支持 反对

    使用道具 举报

    该用户从未签到

    0

    主题

    1万

    帖子

    1万

    积分

    论坛元老

    Rank: 8Rank: 8

    积分
    16181
    发表于 5 天前 | 显示全部楼层
    回复 支持 反对

    使用道具 举报

    该用户从未签到

    0

    主题

    1万

    帖子

    1万

    积分

    论坛元老

    Rank: 8Rank: 8

    积分
    16181
    发表于 5 天前 | 显示全部楼层
    感谢楼主的无私分享!要想蓝光高清电影网好 就靠你我他
    回复 支持 反对

    使用道具 举报

    该用户从未签到

    0

    主题

    1659

    帖子

    1051

    积分

    金牌会员

    Rank: 6Rank: 6

    积分
    1051
    发表于 5 天前 | 显示全部楼层
    回复 支持 反对

    使用道具 举报

    懒得打字嘛,点击右侧快捷回复 【右侧内容,后台自定义】
    您需要登录后才可以回帖 登录 | 立即注册

    本版积分规则

    郑重声明,本站所有作品片源来自互联网公开渠道,均为网友上传交流学习,影视版权均归原电影公司所有,如有侵犯版权,请与 2322694662@qq.com 联系,我们将立即删除。

    小黑屋|手机版|Archiver|百度统计|投诉|蓝光电影下载

    GMT+8, 2021-7-27 16:40 , Processed in 0.061863 second(s), 27 queries , Gzip On, MemCached On.

    Powered by Discuz! X3.4

    © 2001-2013 Comsenz Inc.

    快速回复 返回顶部 返回列表