快捷导航
查看: 4985|回复: 47

[喜剧] 丧尸乐园2[简繁英字幕].Zombieland.Double.Tap.2019.1080p.BluRay.DD/5.1.x264-MOM...

[复制链接]
  • TA的每日心情
    开心
    昨天 23:39
  • 签到天数: 265 天

    [LV.8]以坛为家I

    1万

    主题

    713

    回帖

    20万

    积分

    管理员

    蓝光君

    Rank: 9Rank: 9Rank: 9

    积分
    207918

    活跃会员热心会员推广达人突出贡献优秀版主荣誉管理论坛元老

    QQ
    发表于 2023-5-22 21:46:52 | 显示全部楼层 |阅读模式
    1.png


    ◎标  题 丧尸乐园2
    ◎译  名 丧尸乐园:连环尸杀(港) / 尸乐园:脏比双拼(台) / 僵尸之地2 / 僵尸之地2:双击 / 丧尸乐园2:双击 / Zombieland 2
    ◎片  名 Zombieland: Double Tap
    ◎年  代 2019
    ◎产  地 美国 / 加拿大
    ◎类  别 喜剧 / 动作 / 恐怖
    ◎语  言 英语
    ◎上映日期 2019-10-09(中国台湾) / 2019-10-18(美国)
    ◎IMDb评分 6.7/10 (185313人评价)
    ◎IMDb链接 https://www.imdb.com/title/tt1560220/
    ◎豆瓣评分 6.9/10 (49618人评价)
    ◎豆瓣链接 https://movie.douban.com/subject/4185834/
    ◎片  长 99分钟
    ◎导  演 鲁本·弗雷斯彻 Ruben Fleischer
    ◎编  剧 戴夫·卡拉汉姆 Dave Callaham
           瑞特·里斯 Rhett Reese
           保罗·韦尼克 Paul Wernick
    ◎演  员 伍迪·哈里森 Woody Harrelson
           杰西·艾森伯格 Jesse Eisenberg
           艾玛·斯通 Emma Stone
           阿比盖尔·布雷斯林 Abigail Breslin
           佐伊·达奇 Zoey Deutch
           阿万·乔贾 Avan Jogia
           罗莎里奥·道森 Rosario Dawson
           卢克·威尔逊 Luke Wilson
           托马斯·米德蒂奇 Thomas Middleditch
           维多利亚·哈尔 Victoria Hall
           维克多·里维拉 Victor Rivera
           伊恩·格雷格 Ian Gregg
           德文·莫吉卡 Devin Mojica
           瑞秋·鲁特雷尔 Rachel Luttrell
           约翰·迪克森 John Dixon
           比尔·默瑞 Bill Murray
           阿尔·罗克 Al Roker
           莉莉·埃斯特凡 Lili Estefan
           塞尔吉奥·布里奥内斯 Sergio Briones
           蒂莫西·卡尔 Timothy Carr
           扎拉·麦克道威尔 Zara McDowell
           迪索·拉莫斯 Diezel Ramos
           丹·艾克罗伊德 Dan Aykroyd
           Tara DiPetrillo Tara DiPetrillo

    ◎简  介
        《僵尸之地》是鲁本·弗雷斯彻的导演处女作,上映后好评如潮——获得了烂番茄89%的惊人好评率,此片一举奠定了鲁本在好莱坞商业领域的地位。首映周末以2500万美元登顶冠军的《僵尸之地》,是受到几年前《僵尸肖恩》的启发进行创作的,影片讲述了一种致命病毒席卷了美国,只要被病毒感染,就会变成僵尸。最终,只有几个幸存者没有被感染病毒,决定逃离,获得生存的机会。两个性格迥异的男人凑到了一起,前者对待僵尸的进攻别有心得(制定了一大堆“规则”),后者则是个暴力崇尚者,企图杀光所有的僵尸。在他们逃亡的途中,邂逅了两个精明的女幸存者,他们四人决定一起分享对付僵尸的经验,获得逃生的机会。然而,在杀戮过程中,他们遭遇的危险超出了所有人的想象。按照好莱坞卖座片的类型规律,像《僵尸之地》这种投资仅2000多万美元,没有一线大牌主演的僵尸片,基本都是烂片集中营的当家老大,但此片的成功却来的非常迅猛。这全归功于导演的创意,影片结尾高潮处在游乐园大战僵尸一段,观赏性极强。                                    
                                      《僵尸之地》的主演杰西·艾森伯格、伍迪·哈里森、艾玛·斯通、阿比盖尔·布莱斯林,目前已确定愿意回归剧组参加续集的拍摄,但剧本仍然在创作之中,预计10年上半年开机。                                    
                                      电影《僵尸之地》(Zombieland)导演鲁本.费雷斯彻(Ruben Fleischer)近日在接受采访时透露《僵尸之地》续集有望2010年年底正式开拍。                                    
                                      “我们正在与制片方接触,我们有一些点子它们也非常喜欢。我们肯定会以3D的形式拍摄这部续集。索尼现在已经有自己的3D部门了,我们将在周二(3月2日)参观索尼的3D部门。我知道所有原班人马都很激动回归续集,这将是1部拍摄过程十分精彩有趣的电影。剧本即将开始创作,我希望能在今年年底或者明年年初正式开拍《僵尸之地2》。

    1. ##### MediaInfo ######
    2. General
    3. Unique ID                                : 74020591878229375372396302519952361941 (0x37AFD8F1D32B70A4E27475999C0A49D5)
    4. Complete name                            : Zombieland.Double.Tap.2019.1080p.BluRay.DD+5.1.x264-MOMOHD.mkv
    5. Format                                   : Matroska
    6. Format version                           : Version 4
    7. File size                                : 10.6 GiB
    8. Duration                                 : 1 h 39 min
    9. Overall bit rate                         : 15.4 Mb/s
    10. Encoded date                             : UTC 2019-12-28 15:12:25
    11. Writing application                      : mkvmerge v38.0.0 ('The Silent Type') 64-bit
    12. Writing library                          : libebml v1.3.9 + libmatroska v1.5.2

    13. Video
    14. ID                                       : 1
    15. Format                                   : AVC
    16. Format/Info                              : Advanced Video Codec
    17. Format profile                           : High@L4.1
    18. Format settings                          : CABAC / 5 Ref Frames
    19. Format settings, CABAC                   : Yes
    20. Format settings, Reference frames        : 5 frames
    21. Codec ID                                 : V_MPEG4/ISO/AVC
    22. Duration                                 : 1 h 39 min
    23. Bit rate                                 : 14.0 Mb/s
    24. Width                                    : 1 920 pixels
    25. Height                                   : 802 pixels
    26. Display aspect ratio                     : 2.40:1
    27. Frame rate mode                          : Constant
    28. Frame rate                               : 23.976 (24000/1001) FPS
    29. Color space                              : YUV
    30. Chroma subsampling                       : 4:2:0
    31. Bit depth                                : 8 bits
    32. Scan type                                : Progressive
    33. Bits/(Pixel*Frame)                       : 0.381
    34. Stream size                              : 9.72 GiB (91%)
    35. Writing library                          : x264 core 158 r2984 3759fcb
    36. Encoding settings                        : cabac=1 / ref=5 / deblock=1:-3:-3 / analyse=0x3:0x133 / me=umh / subme=11 / psy=1 / psy_rd=1.02:0.00 / mixed_ref=1 / me_range=32 / chroma_me=1 / trellis=2 / 8x8dct=1 / cqm=0 / deadzone=21,11 / fast_pskip=0 / chroma_qp_offset=-2 / threads=18 / lookahead_threads=3 / sliced_threads=0 / nr=0 / decimate=0 / interlaced=0 / bluray_compat=0 / constrained_intra=0 / bframes=9 / b_pyramid=2 / b_adapt=2 / b_bias=0 / direct=3 / weightb=1 / open_gop=0 / weightp=2 / keyint=250 / keyint_min=23 / scenecut=40 / intra_refresh=0 / rc_lookahead=250 / rc=crf / mbtree=0 / crf=17.0 / qcomp=0.60 / qpmin=0 / qpmax=69 / qpstep=4 / vbv_maxrate=62500 / vbv_bufsize=78125 / crf_max=0.0 / nal_hrd=none / filler=0 / ip_ratio=1.30 / pb_ratio=1.20 / aq=3:0.80
    37. Default                                  : Yes
    38. Forced                                   : No
    39. Color range                              : Limited
    40. Color primaries                          : BT.709
    41. Matrix coefficients                      : BT.709

    42. Audio #1
    43. ID                                       : 2
    44. Format                                   : E-AC-3
    45. Format/Info                              : Enhanced AC-3
    46. Commercial name                          : Dolby Digital Plus
    47. Codec ID                                 : A_EAC3
    48. Duration                                 : 1 h 39 min
    49. Bit rate mode                            : Constant
    50. Bit rate                                 : 1 023 kb/s
    51. Channel(s)                               : 6 channels
    52. Channel layout                           : L R C LFE Ls Rs
    53. Sampling rate                            : 48.0 kHz
    54. Frame rate                               : 93.750 FPS (512 SPF)
    55. Compression mode                         : Lossy
    56. Stream size                              : 725 MiB (7%)
    57. Language                                 : English
    58. Service kind                             : Complete Main
    59. Default                                  : Yes
    60. Forced                                   : No

    61. Audio #2
    62. ID                                       : 3
    63. Format                                   : AC-3
    64. Format/Info                              : Audio Coding 3
    65. Commercial name                          : Dolby Digital
    66. Codec ID                                 : A_AC3
    67. Duration                                 : 1 h 39 min
    68. Bit rate mode                            : Constant
    69. Bit rate                                 : 192 kb/s
    70. Channel(s)                               : 2 channels
    71. Channel layout                           : L R
    72. Sampling rate                            : 48.0 kHz
    73. Frame rate                               : 31.250 FPS (1536 SPF)
    74. Compression mode                         : Lossy
    75. Delay relative to video                  : 24 ms
    76. Stream size                              : 136 MiB (1%)
    77. Title                                    : Commentary Director: Ruben Fleischer
    78. Language                                 : English
    79. Service kind                             : Complete Main
    80. Default                                  : No
    81. Forced                                   : No

    82. Text #1
    83. ID                                       : 4
    84. Format                                   : PGS
    85. Muxing mode                              : zlib
    86. Codec ID                                 : S_HDMV/PGS
    87. Codec ID/Info                            : Picture based subtitle format used on BDs/HD-DVDs
    88. Duration                                 : 1 h 38 min
    89. Bit rate                                 : 46.4 kb/s
    90. Frame rate                               : 0.483 FPS
    91. Count of elements                        : 2844
    92. Stream size                              : 32.6 MiB (0%)
    93. Language                                 : English
    94. Default                                  : No
    95. Forced                                   : No

    96. Text #2
    97. ID                                       : 5
    98. Format                                   : PGS
    99. Muxing mode                              : zlib
    100. Codec ID                                 : S_HDMV/PGS
    101. Codec ID/Info                            : Picture based subtitle format used on BDs/HD-DVDs
    102. Duration                                 : 1 h 38 min
    103. Bit rate                                 : 35.4 kb/s
    104. Frame rate                               : 0.576 FPS
    105. Count of elements                        : 3394
    106. Stream size                              : 24.8 MiB (0%)
    107. Title                                    : CHS
    108. Language                                 : Chinese
    109. Default                                  : Yes
    110. Forced                                   : No

    111. Text #3
    112. ID                                       : 6
    113. Format                                   : PGS
    114. Muxing mode                              : zlib
    115. Codec ID                                 : S_HDMV/PGS
    116. Codec ID/Info                            : Picture based subtitle format used on BDs/HD-DVDs
    117. Duration                                 : 1 h 38 min
    118. Bit rate                                 : 32.1 kb/s
    119. Frame rate                               : 0.592 FPS
    120. Count of elements                        : 3488
    121. Stream size                              : 22.6 MiB (0%)
    122. Title                                    : CHT
    123. Language                                 : Chinese
    124. Default                                  : No
    125. Forced                                   : No

    126. Text #4
    127. ID                                       : 7
    128. Format                                   : PGS
    129. Muxing mode                              : zlib
    130. Codec ID                                 : S_HDMV/PGS
    131. Codec ID/Info                            : Picture based subtitle format used on BDs/HD-DVDs
    132. Duration                                 : 1 h 38 min
    133. Bit rate                                 : 73.4 kb/s
    134. Frame rate                               : 0.605 FPS
    135. Count of elements                        : 3585
    136. Stream size                              : 51.8 MiB (0%)
    137. Language                                 : English
    138. Default                                  : No
    139. Forced                                   : No

    140. Menu
    141. 00:00:00.000                             : en:Chapter 1
    142. 00:05:00.675                             : en:Chapter 2
    143. 00:11:08.000                             : en:Chapter 3
    144. 00:15:24.506                             : en:Chapter 4
    145. 00:21:16.191                             : en:Chapter 5
    146. 00:29:15.545                             : en:Chapter 6
    147. 00:36:55.421                             : en:Chapter 7
    148. 00:44:03.015                             : en:Chapter 8
    149. 00:50:12.968                             : en:Chapter 9
    150. 00:57:52.510                             : en:Chapter 10
    151. 01:03:51.869                             : en:Chapter 11
    152. 01:06:50.047                             : en:Chapter 12
    153. 01:10:12.124                             : en:Chapter 13
    154. 01:15:40.118                             : en:Chapter 14
    155. 01:23:45.311                             : en:Chapter 15
    156. 01:29:48.216                             : en:Chapter 16
    复制代码
    2.png 1.png
    本帖隐藏的内容需要VIP会员才可浏览,您需要升级才可浏览,点击这里升级VIP

    大咖网站我来了!
    回复

    使用道具 举报

    该用户从未签到

    0

    主题

    2052

    回帖

    2264

    积分

    金牌会员

    Rank: 6Rank: 6

    积分
    2264
    发表于 2023-5-22 21:46:56 | 显示全部楼层
    支持楼主大哥,谢谢楼主

    点评

    海!外直播 bitly.net/x5555 禁闻视频 bitly.net/xjjjx 下面这个前神州动物园长,用腐料养肥了众多老虎苍蝇,以致园内民怨沸腾,害得武松打了几年老虎还没打完。看这个就知道来龙去脉了..  发表于 4 天前
    QQ 892551098 出~售 桑---拿--女 良~~家 少~~妇 大~学生, 洗--浴 会--所~~资~料 直接--联-系-小---姐-本-人,安-全-方便  发表于 2023-8-30 09:49
    回复 支持 反对

    使用道具 举报

    该用户从未签到

    0

    主题

    1523

    回帖

    1619

    积分

    金牌会员

    Rank: 6Rank: 6

    积分
    1619
    发表于 2023-5-22 21:47:21 | 显示全部楼层
    回复 支持 反对

    使用道具 举报

  • TA的每日心情
    奋斗
    2023-7-9 14:14
  • 签到天数: 2 天

    [LV.1]初来乍到

    0

    主题

    1万

    回帖

    1万

    积分

    论坛元老

    Rank: 8Rank: 8

    积分
    11640
    发表于 2023-5-22 21:47:41 | 显示全部楼层
    回复 支持 反对

    使用道具 举报

    该用户从未签到

    0

    主题

    951

    回帖

    984

    积分

    高级会员

    Rank: 4

    积分
    984
    发表于 2023-5-22 22:08:03 | 显示全部楼层
    回复 支持 反对

    使用道具 举报

    该用户从未签到

    0

    主题

    1571

    回帖

    1632

    积分

    金牌会员

    Rank: 6Rank: 6

    积分
    1632
    发表于 2023-5-23 13:18:52 | 显示全部楼层
    这个帖子不回对不起自己!我想我是一天也不能离开蓝光电影网
    回复 支持 反对

    使用道具 举报

    该用户从未签到

    0

    主题

    6213

    回帖

    6333

    积分

    论坛元老

    Rank: 8Rank: 8

    积分
    6333
    发表于 2023-5-23 13:47:42 | 显示全部楼层
    楼主太厉害了!楼主,电影应该很好看我觉得蓝光电影下载真是个好地方!
    回复 支持 反对

    使用道具 举报

  • TA的每日心情
    奋斗
    2023-7-9 14:14
  • 签到天数: 2 天

    [LV.1]初来乍到

    0

    主题

    1万

    回帖

    1万

    积分

    论坛元老

    Rank: 8Rank: 8

    积分
    11640
    发表于 2023-5-23 22:08:50 | 显示全部楼层
    感谢楼主的无私分享!要想蓝光高清电影网好 就靠你我他
    回复 支持 反对

    使用道具 举报

    该用户从未签到

    0

    主题

    6213

    回帖

    6333

    积分

    论坛元老

    Rank: 8Rank: 8

    积分
    6333
    发表于 2023-5-23 22:40:24 | 显示全部楼层

    是个好电影!必须要看的!多谢分享!
    回复 支持 反对

    使用道具 举报

  • TA的每日心情
    开心
    2023-6-10 10:18
  • 签到天数: 1 天

    [LV.1]初来乍到

    1

    主题

    2

    回帖

    16

    积分

    新手上路

    Rank: 1

    积分
    16
    发表于 2023-6-10 10:21:49 | 显示全部楼层

    感谢楼主的无私分享!要想蓝光高清电影网好 就靠你我他
    回复 支持 反对

    使用道具 举报

    懒得打字嘛,点击右侧快捷回复 【右侧内容,后台自定义】
    您需要登录后才可以回帖 登录 | 立即注册

    本版积分规则

    郑重声明,本站所有作品片源来自互联网公开渠道,均为网友上传交流学习,影视版权均归原电影公司所有,如有侵犯版权,请与 2322694662@qq.com 联系,我们将立即删除。

    小黑屋|手机版|Archiver|投诉|51la|蓝光电影下载

    返回顶部
    x

    客服微信扫码添加咨询

    GMT+8, 2024-6-16 05:18 , Processed in 0.144457 second(s), 42 queries , Gzip On.

    Powered by Discuz! X3.4

    © 2001-2013 Comsenz Inc.

    快速回复 返回顶部 返回列表