快捷导航
查看: 8271|回复: 29

赛车总动员/反斗车王 Cars.2006.3D.1080p.BluRay.x264-SPRiNTER 7.94GB

[复制链接]
  • TA的每日心情
    开心
    昨天 23:39
  • 签到天数: 265 天

    [LV.8]以坛为家I

    1万

    主题

    713

    回帖

    20万

    积分

    管理员

    蓝光君

    Rank: 9Rank: 9Rank: 9

    积分
    207918

    活跃会员热心会员推广达人突出贡献优秀版主荣誉管理论坛元老

    QQ
    发表于 2019-12-1 16:36:55 | 显示全部楼层 |阅读模式

    赛车总动员/反斗车王 Cars.2006.3D.1080p.BluRay.x264-SPRiNTER 7.94GB-1.png

    译  名 赛车总动员 / 反斗车王(港) / 小汽车的故事 / 汽车总动员 / 飞车正传
    片  名 Cars
    年  代 2006
    产  地 美国
    类  别 喜剧 / 动画 / 冒险
    语  言 英语 / 意大利语 / 日语 / 依地语
    上映日期 2006-06-09(美国) / 2006-08-22(中国大陆)
    IMDb评分  7.1/10 from 335631 users
    IMDb链接  http://www.imdb.com/title/tt0317219
    豆瓣评分 7.9/10 from 120886 users
    豆瓣链接 https://movie.douban.com/subject/1428878/
    片  长 117分钟
    导  演 约翰·拉塞特 John Lasseter / 乔·兰福特 Joe Ranft
    编  剧 约翰·拉塞特 John Lasseter / 乔·兰福特 Joe Ranft / 乔根·克卢宾 Jorgen Klubien / 丹·福格尔曼 Dan Fogelman / 基尔·默里 Kiel Murray / 菲尔·洛林 Phil Lorin / 史蒂夫·波赛尔 Steve Purcell
    主  演 欧文·威尔逊 Owen Wilson
           保罗·纽曼 Paul Newman
           邦尼·亨特 Bonnie Hunt
           王牌接线员拉里 Larry The Cable Guy
           切奇·马林 Cheech Marin
           托尼·夏尔赫布 Tony Shalhoub
           盖多·克隆尼 Guido Quaroni
           詹妮弗·路易斯 Jenifer Lewis
           保罗·杜利 Paul Dooley
           迈克尔·沃利斯 Michael Wallis
           乔治·卡林 George Carlin
           凯瑟琳·海蒙德 Katherine Helmond
           约翰·拉岑贝格 John Ratzenberger
           乔·兰福特 Joe Ranft
           迈克尔·基顿 Michael Keaton
           伊迪·迈克莱尔 Edie McClurg
           安德鲁·斯坦顿 Andrew Stanton
           小戴尔·恩哈特 Dale Earnhardt Jr.
           迈克尔·舒马赫 Michael Schumacher
           杰·雷诺 Jay Leno
           乔纳斯·里维拉 Jonas Rivera
           卢·罗曼诺 Lou Romano
           艾丽莎·奈特 Elissa Knight
           林赛·柯林斯 Lindsey Collins


    标  签 动画 | 美国 | Pixar | 迪斯尼 | 喜剧 | 动画片 | 2006 | 美国电影

    简  介  

      汽车世界中,一年一度的活塞杯再次拉开序幕。红色跑车“闪电”麦坤和“冠军”、“路霸”是冠军最有力的竞争者。作为新人,麦坤具有极高的天赋,同时也是一个目空一切的家伙。经过紧张激烈的对抗,这三辆车同时冲过终点线。由于无法判定最终优胜者,组委会决定一个月后在加州洛杉矶召开一次只有这三辆车参加的殊死战,只有最后的胜者才能捧得活塞杯。
      信心满满麦坤和搭档拖车麦大叔早早启程。但是长时间的疲劳驾驶,令麦大叔不慎将麦坤丢在半路。麦坤东闯西撞,无意间来到了被众车遗忘的油车水镇。因躲避警长的追捕,麦坤毁坏了小镇的马路。在法官哈迪逊韩大夫和律师保时捷莎莉的裁决下,他被迫留在这里修路。短短几天相处,麦坤和小镇的居民渐渐融洽起来,同时他也爱上了美丽的莎莉。只不过,路终有修完的时候,未完的比赛仍在等待着他……

    获奖情况  

      第79届奥斯卡金像奖(2007)
      最佳动画长片(提名) 约翰·拉塞特
      最佳原创歌曲(提名) 兰迪·纽曼

      第64届金球奖(2007)
      电影类 最佳动画长片

      第34届动画安妮奖(2007)
      最佳动画长片
      最佳导演(提名) 约翰·拉塞特
      最佳编剧(提名) 丹·福格尔曼
      最佳配乐 兰迪·纽曼
      最佳艺术指导(提名) William Cone
      最佳动画角色(提名) 卡洛斯·巴埃纳 / Bobby Podesta
      最佳动画效果(提名) Keith Daniel Klohn / Erdem Taylan
    1. Video
    2. ID                                       : 1
    3. Format                                   : AVC
    4. Format/Info                              : Advanced Video Codec
    5. Format profile                           : High@L4
    6. Format settings                          : CABAC / 5 Ref Frames
    7. Format settings, CABAC                   : Yes
    8. Format settings, Reference frames        : 5 frames
    9. Codec ID                                 : V_MPEG4/ISO/AVC
    10. Duration                                 : 1 h 56 min
    11. Bit rate                                 : 9 100 kb/s
    12. Width                                    : 1 920 pixels
    13. Height                                   : 808 pixels
    14. Display aspect ratio                     : 2.40:1
    15. Frame rate mode                          : Constant
    16. Frame rate                               : 23.976 (24000/1001) FPS
    17. Color space                              : YUV
    18. Chroma subsampling                       : 4:2:0
    19. Bit depth                                : 8 bits
    20. Scan type                                : Progressive
    21. Bits/(Pixel*Frame)                       : 0.245
    22. Stream size                              : 7.42 GiB (93%)
    23. Writing library                          : x264 core 158 r2984 3759fcb
    24. Encoding settings                        : cabac=1 / ref=5 / deblock=1:-3:-3 / analyse=0x3:0x133 / me=umh / subme=9 / psy=1 / psy_rd=1.00:0.00 / mixed_ref=1 / me_range=16 / chroma_me=1 / trellis=2 / 8x8dct=1 / cqm=0 / deadzone=21,11 / fast_pskip=0 / chroma_qp_offset=-2 / threads=12 / lookahead_threads=1 / sliced_threads=0 / nr=0 / decimate=1 / interlaced=0 / bluray_compat=0 / constrained_intra=0 / bframes=3 / b_pyramid=2 / b_adapt=2 / b_bias=0 / direct=3 / weightb=1 / open_gop=0 / weightp=2 / keyint=250 / keyint_min=23 / scenecut=40 / intra_refresh=0 / rc_lookahead=60 / rc=2pass / mbtree=1 / bitrate=9100 / ratetol=1.0 / qcomp=0.60 / qpmin=10 / qpmax=69 / qpstep=4 / cplxblur=20.0 / qblur=0.5 / ip_ratio=1.40 / aq=1:0.70
    25. Default                                  : Yes
    26. Forced                                   : No

    27. Audio
    28. ID                                       : 2
    29. Format                                   : AC-3
    30. Format/Info                              : Audio Coding 3
    31. Commercial name                          : Dolby Digital
    32. Codec ID                                 : A_AC3
    33. Duration                                 : 1 h 56 min
    34. Bit rate mode                            : Constant
    35. Bit rate                                 : 640 kb/s
    36. Channel(s)                               : 6 channels
    37. Channel layout                           : L R C LFE Ls Rs
    38. Sampling rate                            : 48.0 kHz
    39. Frame rate                               : 31.250 FPS (1536 SPF)
    40. Bit depth                                : 16 bits
    41. Compression mode                         : Lossy
    42. Stream size                              : 534 MiB (7%)
    43. Title                                    : English AC3 640 kbps
    44. Language                                 : English
    45. Service kind                             : Complete Main
    46. Default                                  : Yes
    47. Forced                                   : No

    48. Menu
    49. 00:00:00.000                             : :
    50. 00:09:37.576                             : :
    51. 00:13:47.993                             : :
    52. 00:16:19.019                             : :
    53. 00:19:52.649                             : :
    54. 00:24:33.054                             : :
    55. 00:27:26.728                             : :
    56. 00:28:11.940                             : :
    57. 00:29:41.321                             : :
    58. 00:33:57.451                             : :
    59. 00:35:53.442                             : :
    60. 00:41:50.341                             : :
    61. 00:45:55.752                             : :
    62. 00:48:40.208                             : :
    63. 00:50:38.660                             : :
    64. 00:54:40.360                             : :
    65. 00:57:47.380                             : :
    66. 01:01:28.935                             : :
    67. 01:02:58.274                             : :
    68. 01:05:42.438                             : :
    69. 01:07:42.766                             : :
    70. 01:09:48.976                             : :
    71. 01:11:26.907                             : :
    72. 01:15:01.121                             : :
    73. 01:15:57.469                             : :
    74. 01:20:13.808                             : :
    75. 01:22:21.352                             : :
    76. 01:24:58.468                             : :
    77. 01:27:31.412                             : :
    78. 01:32:36.675                             : :
    79. 01:46:17.287                             : :
    80. 01:48:31.504                             : :
    复制代码

    赛车总动员/反斗车王 Cars.2006.3D.1080p.BluRay.x264-SPRiNTER 7.94GB-2.png

    游客,如果您要查看本帖隐藏内容请回复



    大咖网站我来了!
    回复

    使用道具 举报

  • TA的每日心情
    开心
    2016-6-1 14:06
  • 签到天数: 1 天

    [LV.1]初来乍到

    0

    主题

    1539

    回帖

    1591

    积分

    金牌会员

    Rank: 6Rank: 6

    积分
    1591
    发表于 2019-12-1 18:08:52 | 显示全部楼层
    感谢楼主的无私分享!要想蓝光高清电影网好 就靠你我他
    回复 支持 反对

    使用道具 举报

  • TA的每日心情
    慵懒
    2022-9-15 21:40
  • 签到天数: 1 天

    [LV.1]初来乍到

    0

    主题

    2万

    回帖

    2万

    积分

    论坛元老

    Rank: 8Rank: 8

    积分
    29203
    发表于 2019-12-4 07:04:24 | 显示全部楼层
    回复 支持 反对

    使用道具 举报

    该用户从未签到

    0

    主题

    4850

    回帖

    4928

    积分

    论坛元老

    Rank: 8Rank: 8

    积分
    4928
    发表于 2019-12-13 02:39:39 | 显示全部楼层
    回复 支持 反对

    使用道具 举报

  • TA的每日心情
    奋斗
    2022-5-17 04:04
  • 签到天数: 1 天

    [LV.1]初来乍到

    0

    主题

    6720

    回帖

    6884

    积分

    论坛元老

    Rank: 8Rank: 8

    积分
    6884
    发表于 2019-12-19 03:17:56 | 显示全部楼层
    这个帖子不回对不起自己!我想我是一天也不能离开蓝光电影网
    回复 支持 反对

    使用道具 举报

    该用户从未签到

    0

    主题

    2997

    回帖

    3068

    积分

    论坛元老

    Rank: 8Rank: 8

    积分
    3068
    发表于 2019-12-24 20:10:27 | 显示全部楼层
    回复 支持 反对

    使用道具 举报

    该用户从未签到

    0

    主题

    1118

    回帖

    1155

    积分

    金牌会员

    Rank: 6Rank: 6

    积分
    1155
    发表于 2020-1-4 07:27:12 | 显示全部楼层

    非常精彩的电影,下来收藏,感谢楼主
    回复 支持 反对

    使用道具 举报

  • TA的每日心情
    开心
    昨天 15:10
  • 签到天数: 704 天

    [LV.9]以坛为家II

    0

    主题

    715

    回帖

    4489

    积分

    论坛元老

    Rank: 8Rank: 8

    积分
    4489
    发表于 2021-4-16 14:36:27 | 显示全部楼层
    回复 支持 反对

    使用道具 举报

  • TA的每日心情
    开心
    2021-5-31 10:33
  • 签到天数: 4 天

    [LV.2]偶尔看看I

    0

    主题

    6

    回帖

    122

    积分

    注册会员

    Rank: 2

    积分
    122
    发表于 2021-4-29 08:42:06 | 显示全部楼层
    回复 支持 反对

    使用道具 举报

  • TA的每日心情
    开心
    2021-7-24 22:26
  • 签到天数: 1 天

    [LV.1]初来乍到

    1

    主题

    5

    回帖

    114

    积分

    注册会员

    Rank: 2

    积分
    114
    发表于 2021-7-24 22:34:47 | 显示全部楼层
    回复 支持 反对

    使用道具 举报

    懒得打字嘛,点击右侧快捷回复 【右侧内容,后台自定义】
    您需要登录后才可以回帖 登录 | 立即注册

    本版积分规则

    郑重声明,本站所有作品片源来自互联网公开渠道,均为网友上传交流学习,影视版权均归原电影公司所有,如有侵犯版权,请与 2322694662@qq.com 联系,我们将立即删除。

    小黑屋|手机版|Archiver|投诉|51la|蓝光电影下载

    返回顶部
    x

    客服微信扫码添加咨询

    GMT+8, 2024-6-16 05:11 , Processed in 0.094007 second(s), 39 queries , Gzip On.

    Powered by Discuz! X3.4

    © 2001-2013 Comsenz Inc.

    快速回复 返回顶部 返回列表