江小贝 发表于 2021-7-13 22:27:25

即将18 Almost.18.2012.1080p.BluRay.x264-MCHD 8.75GB

帖子完整标题:即将18 Almost.18.2012.1080p.BluRay.x264-MCHD 8.75GBhttps://img.btkiller.com/go?url=/uploads/2020/09/06/6c9fd5349e50f.png


译  名 即将18/Almost 18
片  名 Kohta 18
年  代 2012
产  地 芬兰
类  别 剧情
语  言 芬兰语 Finnish
上映日期 2012-03-09
IMDb评分6.2/10 from 572 users
IMDb链接https://www.imdb.com/title/tt2131541/
豆瓣评分 7.0/10 from 37 users
豆瓣链接 https://movie.douban.com/subject/10797044/
片  长 110分钟
主  演 艾丽娜·克尼赫蒂莱 Elina Knihtil?

标  签 芬兰 | 青春 | 北欧 | 2010s | 成长 | 家庭 | 纪录片 | 欧洲

简  介

  ”Kohta 18” (Almost 18), director and writer Maarit Lalli’s first feature film, has received positive responses from critics and audiences. The film tells five boys’ distinct yet interconnected stories. The common denominator for the stories is not only the boys’ friendship, but the struggles they face with their parents and themselves, while they are pursuing independence. In essence the movie is about youth as well as friend and family relationships.
  
  The film manages to depict the lives of these five boys in Helsinki from a fresh perspective – the main characters are not troubled or extraordinary youths, but instead quite normal young men with everyday problems. The actors (even though they are amateurs) convince in their roles making their characters easily relatable, eliciting empathy from viewers.
  
  《即将18 》是本片导演及编剧Maarit Lalli的首部故事片。迄今为止该片已经得到了电影评论家与观众的不少好评。该片讲述了五个男孩独特的却又互相关联的故事。将这些故事融合到电影中的是他们在追求独立时彼此间的兄弟情以及面对父母与自我时的奋斗挣扎。从本质上来说,这是一部关于青春、友情与亲情的电影。
  
  该片成功地以全新的角度描绘了五位赫尔辛基男孩的生活:故事的主人公不是那些到处制造麻烦或者天赋异禀的年轻人,而是那些普通青年,他们遇到的是生活中常有的破事儿。通过演员们(虽然他们不是专业演员)的演绎,观众很容易产生共鸣,并能感同身受。Video
ID                                       : 1
Format                                 : AVC
Format/Info                              : Advanced Video Codec
Format profile                           : High@L4
Format settings                        : CABAC / 4 Ref Frames
Format settings, CABAC                   : Yes
Format settings, Reference frames      : 4 frames
Codec ID                                 : V_MPEG4/ISO/AVC
Duration                                 : 1 h 51 min
Bit rate                                 : 10.8 Mb/s
Width                                    : 1 920 pixels
Height                                 : 1 080 pixels
Display aspect ratio                     : 16:9
Frame rate mode                        : Constant
Frame rate                               : 23.976 (24000/1001/189150) FPS
Color space                              : YUV
Chroma subsampling                     : 4:2:0
Bit depth                              : 8 bits
Scan type                              : Progressive
Bits/(Pixel*Frame)                     : 0.216
Stream size                              : 8.22 GiB (94%)
Writing library                        : x264 core 125 r2208 d9d2288
Encoding settings                        : cabac=1 / ref=4 / deblock=1:0:0 / analyse=0x3:0x133 / me=umh / subme=7 / psy=1 / psy_rd=1.00:0.00 / mixed_ref=1 / me_range=16 / chroma_me=1 / trellis=1 / 8x8dct=1 / cqm=0 / deadzone=21,11 / fast_pskip=0 / chroma_qp_offset=-2 / threads=6 / lookahead_threads=1 / sliced_threads=0 / nr=0 / decimate=1 / interlaced=0 / bluray_compat=0 / constrained_intra=0 / bframes=3 / b_pyramid=2 / b_adapt=2 / b_bias=0 / direct=3 / weightb=1 / open_gop=0 / weightp=2 / keyint=250 / keyint_min=23 / scenecut=40 / intra_refresh=0 / rc_lookahead=50 / rc=2pass / mbtree=1 / bitrate=10760 / ratetol=1.0 / qcomp=0.60 / qpmin=0 / qpmax=69 / qpstep=4 / cplxblur=20.0 / qblur=0.5 / ip_ratio=1.40 / aq=1:1.00
Language                                 : English
Default                                  : No
Forced                                 : No

Audio
ID                                       : 2
Format                                 : AC-3
Format/Info                              : Audio Coding 3
Commercial name                        : Dolby Digital
Codec ID                                 : A_AC3
Duration                                 : 1 h 51 min
Bit rate mode                            : Constant
Bit rate                                 : 448 kb/s
Channel(s)                               : 6 channels
Channel layout                           : L R C LFE Ls Rs
Sampling rate                            : 48.0 kHz
Frame rate                               : 31.250 FPS (1536 SPF)
Compression mode                         : Lossy
Stream size                              : 358 MiB (4%)
Language                                 : Finnish
Service kind                           : Complete Main
Default                                  : Yes
Forced                                 : No

Text #1
ID                                       : 3
Format                                 : UTF-8
Codec ID                                 : S_TEXT/UTF8
Codec ID/Info                            : UTF-8 Plain Text
Language                                 : English
Default                                  : Yes
Forced                                 : No

Text #2
ID                                       : 4
Format                                 : UTF-8
Codec ID                                 : S_TEXT/UTF8
Codec ID/Info                            : UTF-8 Plain Text
Language                                 : Finnish
Default                                  : No
Forced                                 : No

Text #3
ID                                       : 5
Format                                 : UTF-8
Codec ID                                 : S_TEXT/UTF8
Codec ID/Info                            : UTF-8 Plain Text
Language                                 : Swedish
Default                                  : No
Forced                                 : No
https://img.btkiller.com/go?url=/uploads/2020/09/06/354b811a9f8da.png
https://img.btkiller.com/go?url=/uploads/2020/09/06/57bc4696a5393.png
https://img.btkiller.com/go?url=/uploads/2020/09/06/63a04f1015087.png
**** Hidden Message *****




小猪华华 发表于 2021-7-14 03:35:45


非常精彩的电影,下来收藏,感谢楼主

SuMi_Huang 发表于 2021-7-14 18:50:35

支持楼主大哥,谢谢楼主

jhyqgh 发表于 2021-7-15 07:16:44

这是我喜欢的电影

guvsheny 发表于 2021-7-15 16:37:21

感谢楼主,哈哈哈哈哈哈

宁采臣 发表于 2021-7-15 20:07:50


不错收了谢谢分享

wen1783 发表于 2021-7-16 13:36:53

谢谢楼主。。。。。。。

seamango 发表于 2021-7-16 13:36:53

谢谢楼主资源

jsf21 发表于 2021-7-17 17:03:58

感谢楼主的无私分享!要想蓝光高清电影网好 就靠你我他

mashanren 发表于 2021-8-5 00:08:29

太好了,我喜欢,让我选择吧
页: [1] 2 3 4
查看完整版本: 即将18 Almost.18.2012.1080p.BluRay.x264-MCHD 8.75GB

郑重声明,本站所有作品片源来自互联网公开渠道,均为网友上传交流学习,影视版权均归原电影公司所有,如有侵犯版权,请与 2322694662@qq.com 联系,我们将立即删除。