快捷导航
查看: 10466|回复: 27

[喜剧] 铁幕性史 Sexmission.1984.720p.BluRay.x264-SPRiNTER 4.37GB

[复制链接]
  • TA的每日心情
    开心
    2023-8-30 22:47
  • 签到天数: 264 天

    [LV.8]以坛为家I

    1万

    主题

    691

    回帖

    20万

    积分

    管理员

    蓝光君

    Rank: 9Rank: 9Rank: 9

    积分
    204907

    活跃会员热心会员推广达人突出贡献优秀版主荣誉管理论坛元老

    QQ
    发表于 2019-12-28 15:21:45 | 显示全部楼层 |阅读模式

    铁幕性史 Sexmission.1984.720p.BluRay.x264-SPRiNTER 4.37GB-1.png

    译  名 铁幕性史 / Sexmission / 性·任务
    片  名 Seksmisja
    年  代 1984
    产  地 波兰
    类  别 喜剧 / 科幻 / 冒险
    语  言 波兰语
    上映日期 1984-05-14(波兰) / 1984-10(芝加哥电影节) / 1985-07-12(东德)
    IMDb评分  7.7/10 from 10857 users
    IMDb链接  https://www.imdb.com/title/tt0088083
    豆瓣评分 7.3/10 from 1452 users
    豆瓣链接 https://movie.douban.com/subject/1401208/
    片  长 120分钟(德国)
    导  演 尤利尤斯·马胡尔斯基 Juliusz Machulski
    编  剧 尤利尤斯·马胡尔斯基 Juliusz Machulski / Jolanta Hartwig
    主  演 Wieslaw Michnikowski
           杰基·斯图尔 Jerzy Stuhr
           奥尔基尔德·鲁卡斯瑟维克茨 Olgierd Lukaszewicz
           Dorota Stalinska
           Janusz Michalowski
           Piotr Stefaniak
           Juliusz Lubicz-Lisowski
           Zofia Plewinska
           Bozena Stryjkówna
           Boguslawa Pawelec
           Hanna Stankówna
           贝娅塔·蒂希基维茨 Beata Tyszkiewicz
           瑞丝扎德·哈宁 Ryszarda Hanin
           Barbara Ludwizanka
           Miroslawa Marcheluk


    标  签 波兰 | 科幻 | 黑色幽默 | 喜剧 | 政治 | 1984 | 暗喻 | 情色

    简  介  

      两名科学家马克思(Jerzy Stuhr 饰)和阿尔伯特(Olgierd Lukaszewicz 饰)志愿参加一个科学试验,他们将被放入密闭的容器中,以半死的状态度过三年时光。然而实验才刚开始,第三次世界大战爆发,地球上的国家均被卷入战争。这两个倒霉的科学家一睡就是五十年,醒来后赫然发现自己身处一个奇异的地下社会:在这里,女性是绝对的领导者,而且他们俩很可能就是现存的仅有的男性。
      对于喜欢拈花惹草的马克思来说,这里无疑就是天堂;而古板木讷的阿尔伯特则百思不得其解,他要想办法摆脱女人帝国的控制,逃脱出去……
    1. Video
    2. ID                                       : 1
    3. Format                                   : AVC
    4. Format/Info                              : Advanced Video Codec
    5. Format profile                           : High@L4
    6. Format settings                          : CABAC / 8 Ref Frames
    7. Format settings, CABAC                   : Yes
    8. Format settings, Reference frames        : 8 frames
    9. Codec ID                                 : V_MPEG4/ISO/AVC
    10. Duration                                 : 1 h 56 min
    11. Bit rate                                 : 5 111 kb/s
    12. Width                                    : 1 280 pixels
    13. Height                                   : 688 pixels
    14. Display aspect ratio                     : 1.85:1
    15. Frame rate mode                          : Constant
    16. Frame rate                               : 25.000 FPS
    17. Color space                              : YUV
    18. Chroma subsampling                       : 4:2:0
    19. Bit depth                                : 8 bits
    20. Scan type                                : Progressive
    21. Bits/(Pixel*Frame)                       : 0.232
    22. Stream size                              : 4.17 GiB (95%)
    23. Writing library                          : x264 core 159 r2991 1771b55
    24. Encoding settings                        : cabac=1 / ref=8 / deblock=1:-3:-3 / analyse=0x3:0x133 / me=umh / subme=9 / psy=1 / psy_rd=1.00:0.00 / mixed_ref=1 / me_range=16 / chroma_me=1 / trellis=2 / 8x8dct=1 / cqm=0 / deadzone=21,11 / fast_pskip=0 / chroma_qp_offset=-2 / threads=21 / lookahead_threads=1 / sliced_threads=0 / nr=0 / decimate=1 / interlaced=0 / bluray_compat=0 / constrained_intra=0 / bframes=3 / b_pyramid=2 / b_adapt=2 / b_bias=0 / direct=3 / weightb=1 / open_gop=0 / weightp=2 / keyint=250 / keyint_min=25 / scenecut=40 / intra_refresh=0 / rc_lookahead=60 / rc=2pass / mbtree=1 / bitrate=5111 / ratetol=1.0 / qcomp=0.60 / qpmin=10 / qpmax=69 / qpstep=4 / cplxblur=20.0 / qblur=0.5 / ip_ratio=1.40 / aq=1:0.70
    25. Default                                  : Yes
    26. Forced                                   : No

    27. Audio
    28. ID                                       : 2
    29. Format                                   : FLAC
    30. Format/Info                              : Free Lossless Audio Codec
    31. Codec ID                                 : A_FLAC
    32. Duration                                 : 1 h 56 min
    33. Bit rate mode                            : Variable
    34. Bit rate                                 : 247 kb/s
    35. Channel(s)                               : 2 channels
    36. Channel layout                           : L R
    37. Sampling rate                            : 48.0 kHz
    38. Frame rate                               : 11.719 FPS (4096 SPF)
    39. Bit depth                                : 16 bits
    40. Compression mode                         : Lossless
    41. Stream size                              : 206 MiB (5%)
    42. Title                                    : Polish FLAC 247 kbps
    43. Writing library                          : libFLAC 1.3.2 (UTC 2017-01-01)
    44. Language                                 : Polish
    45. Default                                  : Yes
    46. Forced                                   : No

    47. Text
    48. ID                                       : 3
    49. Format                                   : UTF-8
    50. Codec ID                                 : S_TEXT/UTF8
    51. Codec ID/Info                            : UTF-8 Plain Text
    52. Duration                                 : 1 h 54 min
    53. Bit rate                                 : 54 b/s
    54. Count of elements                        : 1447
    55. Stream size                              : 45.5 KiB (0%)
    56. Title                                    : English
    57. Language                                 : English
    58. Default                                  : Yes
    59. Forced                                   : No

    60. Menu
    61. 00:00:00.000                             : :
    62. 00:01:05.760                             : :
    63. 00:12:01.440                             : :
    64. 00:29:01.480                             : :
    65. 00:44:38.400                             : :
    66. 01:00:19.200                             : :
    67. 01:12:54.720                             : :
    68. 01:29:43.680                             : :
    69. 01:42:35.040                             : :
    复制代码

    铁幕性史 Sexmission.1984.720p.BluRay.x264-SPRiNTER 4.37GB-2.png

    游客,如果您要查看本帖隐藏内容请回复



    大咖网站我来了!
    回复

    使用道具 举报

    该用户从未签到

    0

    主题

    6207

    回帖

    6324

    积分

    论坛元老

    Rank: 8Rank: 8

    积分
    6324
    发表于 2019-12-28 15:29:48 | 显示全部楼层
    回复 支持 反对

    使用道具 举报

    该用户从未签到

    0

    主题

    8570

    回帖

    8576

    积分

    论坛元老

    Rank: 8Rank: 8

    积分
    8576
    发表于 2019-12-28 19:18:49 | 显示全部楼层
    回复 支持 反对

    使用道具 举报

  • TA的每日心情
    开心
    2021-9-6 17:03
  • 签到天数: 61 天

    [LV.6]常住居民II

    0

    主题

    113

    回帖

    492

    积分

    中级会员

    Rank: 3Rank: 3

    积分
    492
    发表于 2019-12-28 19:53:58 | 显示全部楼层

    既然你诚信诚意的推荐了,那我就勉为其难的看看吧!蓝光电影网不走平凡路。
    回复 支持 反对

    使用道具 举报

    该用户从未签到

    0

    主题

    2294

    回帖

    2327

    积分

    金牌会员

    Rank: 6Rank: 6

    积分
    2327
    发表于 2019-12-28 19:53:58 | 显示全部楼层
    回复 支持 反对

    使用道具 举报

    该用户从未签到

    0

    主题

    6365

    回帖

    6911

    积分

    论坛元老

    Rank: 8Rank: 8

    积分
    6911
    发表于 2019-12-29 03:38:44 | 显示全部楼层
    回复 支持 反对

    使用道具 举报

    该用户从未签到

    0

    主题

    6207

    回帖

    6324

    积分

    论坛元老

    Rank: 8Rank: 8

    积分
    6324
    发表于 2019-12-29 03:52:36 | 显示全部楼层

    非常精彩的电影,下来收藏,感谢楼主
    回复 支持 反对

    使用道具 举报

  • TA的每日心情
    慵懒
    2022-9-15 21:40
  • 签到天数: 1 天

    [LV.1]初来乍到

    0

    主题

    2万

    回帖

    2万

    积分

    论坛元老

    Rank: 8Rank: 8

    积分
    29181
    发表于 2019-12-29 14:58:51 | 显示全部楼层
    感谢楼主的无私分享!要想蓝光高清电影网好 就靠你我他
    回复 支持 反对

    使用道具 举报

    该用户从未签到

    0

    主题

    1567

    回帖

    1626

    积分

    金牌会员

    Rank: 6Rank: 6

    积分
    1626
    发表于 2019-12-29 19:03:14 | 显示全部楼层
    回复 支持 反对

    使用道具 举报

    该用户从未签到

    0

    主题

    8570

    回帖

    8576

    积分

    论坛元老

    Rank: 8Rank: 8

    积分
    8576
    发表于 2020-1-3 17:48:14 | 显示全部楼层
    回复 支持 反对

    使用道具 举报

    懒得打字嘛,点击右侧快捷回复 【右侧内容,后台自定义】
    您需要登录后才可以回帖 登录 | 立即注册

    本版积分规则

    郑重声明,本站所有作品片源来自互联网公开渠道,均为网友上传交流学习,影视版权均归原电影公司所有,如有侵犯版权,请与 2322694662@qq.com 联系,我们将立即删除。

    小黑屋|手机版|Archiver|投诉|51la|蓝光电影下载

    GMT+8, 2024-4-23 02:41 , Processed in 0.081727 second(s), 40 queries , Gzip On.

    Powered by Discuz! X3.4

    © 2001-2013 Comsenz Inc.

    快速回复 返回顶部 返回列表