快捷导航
查看: 396|回复: 25

[科幻] 代号8/八级警报 Code.8.2019.1080p.BluRay.x264.DTS-HD.MA.5.1-FGT 10.41GB

[复制链接]
  • TA的每日心情
    开心
    2020-2-15 21:32
  • 签到天数: 240 天

    [LV.8]以坛为家I

    1万

    主题

    1万

    帖子

    3万

    积分

    管理员

    蓝光君

    Rank: 9Rank: 9Rank: 9

    积分
    37020

    活跃会员热心会员推广达人突出贡献优秀版主荣誉管理论坛元老

    QQ
    发表于 2020-1-2 22:16:25 | 显示全部楼层 |阅读模式
    8235c8f463158.png.jpeg

    译  名 代号8 / 八级警报
    片  名 Code 8
    年  代 2019
    产  地 加拿大
    类  别 科幻
    语  言 英语
    上映日期 2019-12-13(美国)
    IMDb评分  7.4/10 from 348 users
    IMDb链接  https://www.imdb.com/title/tt6259380
    豆瓣评分 0/10 from 0 users
    豆瓣链接 https://movie.douban.com/subject/27066172/
    片  长 98分钟
    导  演 Jeff Chan
    编  剧 Chris Pare
    主  演 斯蒂芬·阿梅尔 Stephen Amell
           罗比·阿美尔 Robbie Amell
           姜成镐 Sung Kang
           蕾斯拉·德·奥利维拉 Laysla De Oliveira
           格雷格·布瑞克 Greg Bryk
           卡瑞·玛切特 Kari Matchett
           彼德·奥德博拉治 Peter Outerbridge
           肖恩·本森 Shaun Benson
           阿隆·艾布拉姆斯 Aaron Abrams
           格伦达·布拉甘扎 Glenda Braganza
           西蒙·诺斯伍德 Simon Northwood
           周豪 Ho Chow
           凯拉·凯恩 Kyla Kane
           Alex Mallari Jr.
           JaNae Armogan
           Jeff Sinasac
           Joe Vercillo


    标  签 科幻 | 电影 | 美国 | 2019 | 剧情 | 种族歧视 | 未上映 | 斯蒂芬·阿梅尔

    简  介  

      杰夫·陈执导,斯蒂芬·阿梅尔、罗比·阿梅尔主演的[代号8](Code 8,暂译)已正式在加拿大投入拍摄。姜成镐、格雷格·布瑞克等加盟出演,阿梅尔两兄弟担任执行制片人。去年,杰夫·陈发布了同名10分钟短片,电影将在此基础上进行创作。故事背景设置在一个4%的居民都有超能力的世界里,这些人生活贫穷并且对社会极具威胁。该片预计2019年加拿大上映。
    1. Video
    2. ID                                       : 1
    3. Format                                   : AVC
    4. Format/Info                              : Advanced Video Codec
    5. Format profile                           : High@L4
    6. Format settings                          : CABAC / 4 Ref Frames
    7. Format settings, CABAC                   : Yes
    8. Format settings, Reference frames        : 4 frames
    9. Codec ID                                 : V_MPEG4/ISO/AVC
    10. Duration                                 : 1 h 38 min
    11. Bit rate                                 : 11.5 Mb/s
    12. Width                                    : 1 920 pixels
    13. Height                                   : 800 pixels
    14. Display aspect ratio                     : 2.40:1
    15. Frame rate mode                          : Constant
    16. Frame rate                               : 23.976 (24000/1001) FPS
    17. Color space                              : YUV
    18. Chroma subsampling                       : 4:2:0
    19. Bit depth                                : 8 bits
    20. Scan type                                : Progressive
    21. Bits/(Pixel*Frame)                       : 0.312
    22. Stream size                              : 7.89 GiB (76%)
    23. Title                                    : Code.8.2019.1080p.BluRay.x264.DTS-HD.MA.5.1-FGT
    24. Writing library                          : x264 core 148 r2748 97eaef2
    25. Encoding settings                        : cabac=1 / ref=4 / deblock=1:-2:-2 / analyse=0x3:0x113 / me=umh / subme=9 / psy=1 / psy_rd=1.00:0.15 / mixed_ref=1 / me_range=16 / chroma_me=1 / trellis=2 / 8x8dct=1 / cqm=0 / deadzone=21,11 / fast_pskip=1 / chroma_qp_offset=-3 / threads=72 / lookahead_threads=3 / sliced_threads=0 / nr=0 / decimate=1 / interlaced=0 / bluray_compat=0 / constrained_intra=0 / bframes=3 / b_pyramid=2 / b_adapt=1 / b_bias=0 / direct=3 / weightb=1 / open_gop=0 / weightp=2 / keyint=250 / keyint_min=25 / scenecut=40 / intra_refresh=0 / rc_lookahead=50 / rc=2pass / mbtree=1 / bitrate=11500 / ratetol=1.0 / qcomp=0.60 / qpmin=0 / qpmax=69 / qpstep=4 / cplxblur=20.0 / qblur=0.5 / vbv_maxrate=31250 / vbv_bufsize=31250 / nal_hrd=none / filler=0 / ip_ratio=1.40 / aq=1:1.00
    26. Language                                 : English
    27. Default                                  : Yes
    28. Forced                                   : No

    29. Audio
    30. ID                                       : 2
    31. Format                                   : DTS XLL
    32. Format/Info                              : Digital Theater Systems
    33. Commercial name                          : DTS-HD Master Audio
    34. Codec ID                                 : A_DTS
    35. Duration                                 : 1 h 38 min
    36. Bit rate mode                            : Variable
    37. Bit rate                                 : 3 666 kb/s
    38. Channel(s)                               : 6 channels
    39. Channel layout                           : C L R Ls Rs LFE
    40. Sampling rate                            : 48.0 kHz
    41. Frame rate                               : 93.750 FPS (512 SPF)
    42. Bit depth                                : 24 bits
    43. Compression mode                         : Lossless
    44. Stream size                              : 2.52 GiB (24%)
    45. Title                                    : Code.8.2019.1080p.BluRay.x264.DTS-HD.MA.5.1-FGT
    46. Language                                 : English
    47. Default                                  : Yes
    48. Forced                                   : No

    49. Text #1
    50. ID                                       : 3
    51. Format                                   : UTF-8
    52. Codec ID                                 : S_TEXT/UTF8
    53. Codec ID/Info                            : UTF-8 Plain Text
    54. Duration                                 : 1 h 30 min
    55. Bit rate                                 : 51 b/s
    56. Count of elements                        : 1231
    57. Stream size                              : 33.8 KiB (0%)
    58. Title                                    : English-SRT
    59. Language                                 : English
    60. Default                                  : Yes
    61. Forced                                   : No

    62. Text #2
    63. ID                                       : 4
    64. Format                                   : UTF-8
    65. Codec ID                                 : S_TEXT/UTF8
    66. Codec ID/Info                            : UTF-8 Plain Text
    67. Duration                                 : 1 h 30 min
    68. Bit rate                                 : 56 b/s
    69. Count of elements                        : 1457
    70. Stream size                              : 37.3 KiB (0%)
    71. Title                                    : English-SDH-SRT
    72. Language                                 : English
    73. Default                                  : No
    74. Forced                                   : No

    75. Menu
    76. 00:00:00.000                             : en:Chapter 1
    77. 00:12:33.961                             : en:Chapter 2
    78. 00:25:17.390                             : en:Chapter 3
    79. 00:36:39.197                             : en:Chapter 4
    80. 00:51:50.273                             : en:Chapter 5
    81. 01:05:27.548                             : en:Chapter 6
    82. 01:13:58.767                             : en:Chapter 7
    83. 01:28:48.865                             : en:Chapter 8
    复制代码

    代号8/八级警报 Code.8.2019.1080p.BluRay.x264.DTS-HD.MA.5.1-FGT 10.41GB-2.png 代号8/八级警报 Code.8.2019.1080p.BluRay.x264.DTS-HD.MA.5.1-FGT 10.41GB-4.png

    游客,如果您要查看本帖隐藏内容请回复



    大中午的快困死蓝光君了
    回复

    使用道具 举报

    该用户从未签到

    0

    主题

    1万

    帖子

    1万

    积分

    论坛元老

    Rank: 8Rank: 8

    积分
    11457
    发表于 2020-1-2 22:16:45 | 显示全部楼层
    楼主太厉害了!楼主,电影应该很好看我觉得蓝光电影下载真是个好地方!
    回复 支持 反对

    使用道具 举报

    该用户从未签到

    0

    主题

    1万

    帖子

    1万

    积分

    论坛元老

    Rank: 8Rank: 8

    积分
    18929
    发表于 2020-1-2 22:17:24 | 显示全部楼层
    回复 支持 反对

    使用道具 举报

    该用户从未签到

    0

    主题

    765

    帖子

    724

    积分

    高级会员

    Rank: 4

    积分
    724
    发表于 2020-1-2 22:24:50 | 显示全部楼层
    回复 支持 反对

    使用道具 举报

  • TA的每日心情
    开心
    2016-6-1 14:06
  • 签到天数: 1 天

    [LV.1]初来乍到

    0

    主题

    596

    帖子

    432

    积分

    中级会员

    Rank: 3Rank: 3

    积分
    432
    发表于 2020-1-2 23:07:48 | 显示全部楼层
    回复 支持 反对

    使用道具 举报

    该用户从未签到

    0

    主题

    1万

    帖子

    1万

    积分

    论坛元老

    Rank: 8Rank: 8

    积分
    18929
    发表于 2020-1-3 07:51:14 | 显示全部楼层
    回复 支持 反对

    使用道具 举报

    该用户从未签到

    0

    主题

    1万

    帖子

    1万

    积分

    论坛元老

    Rank: 8Rank: 8

    积分
    11457
    发表于 2020-1-3 07:51:14 | 显示全部楼层
    感谢楼主的无私分享!要想蓝光高清电影网好 就靠你我他
    回复 支持 反对

    使用道具 举报

    该用户从未签到

    0

    主题

    1万

    帖子

    1万

    积分

    论坛元老

    Rank: 8Rank: 8

    积分
    11457
    发表于 2020-1-3 08:41:44 | 显示全部楼层
    回复 支持 反对

    使用道具 举报

  • TA的每日心情
    开心
    2020-3-12 15:15
  • 签到天数: 45 天

    [LV.5]常住居民I

    0

    主题

    92

    帖子

    371

    积分

    中级会员

    Rank: 3Rank: 3

    积分
    371
    发表于 2020-1-3 17:00:27 | 显示全部楼层

    既然你诚信诚意的推荐了,那我就勉为其难的看看吧!蓝光电影网不走平凡路。
    回复 支持 反对

    使用道具 举报

  • TA的每日心情
    难过
    2020-2-9 01:00
  • 签到天数: 61 天

    [LV.6]常住居民II

    20

    主题

    112

    帖子

    436

    积分

    中级会员

    Rank: 3Rank: 3

    积分
    436
    发表于 2020-1-4 01:19:05 | 显示全部楼层
    回复 支持 反对

    使用道具 举报

    懒得打字嘛,点击右侧快捷回复 【右侧内容,后台自定义】
    您需要登录后才可以回帖 登录 | 立即注册

    本版积分规则

    郑重声明,本站所有作品片源来自互联网公开渠道,均为网友上传交流学习,影视版权均归原电影公司所有,如有侵犯版权,请与 2322694662@qq.com 联系,我们将立即删除。

    小黑屋|手机版|Archiver|百度统计|投诉|蓝光电影下载

    GMT+8, 2020-4-5 13:59 , Processed in 0.039542 second(s), 19 queries , Gzip On, MemCached On.

    Powered by Discuz! X3.4

    © 2001-2013 Comsenz Inc.

    快速回复 返回顶部 返回列表