快捷导航
查看: 317|回复: 26

[剧情] 爱·回家 The.Way.Home.2002.KOREAN.1080p.BluRay.x264.DTS-FGT 7.98GB

[复制链接]
  • TA的每日心情
    开心
    2020-2-15 21:32
  • 签到天数: 240 天

    [LV.8]以坛为家I

    1万

    主题

    1万

    帖子

    4万

    积分

    管理员

    蓝光君

    Rank: 9Rank: 9Rank: 9

    积分
    46696

    活跃会员热心会员推广达人突出贡献优秀版主荣誉管理论坛元老

    QQ
    发表于 2020-1-12 20:28:55 | 显示全部楼层 |阅读模式
    ea64d1220cec0.png.jpeg
    译  名 爱·回家 / The Way Home / 一屋两婆孙 / 回家路 / 回家路上 / 外婆的家 / 有你真好
    片  名 ???...
    年  代 2002
    产  地 韩国
    类  别 剧情 / 家庭
    语  言 韩语
    上映日期 2002-04-05(韩国)
    IMDb评分  7.8/10 from 4694 users
    IMDb链接  https://www.imdb.com/title/tt0312841
    豆瓣评分 9.1/10 from 59789 users
    豆瓣链接 https://movie.douban.com/subject/1299361/
    片  长 80分钟
    导  演 李廷香 Jeong-hyang Lee
    编  剧 李廷香 Jeong-hyang Lee
    主  演 金艺芬 Eul-boon Kim
           俞承豪 Seung-Ho Yoo
           童孝熙
           闵京勋
           任恩敬


    标  签 亲情 | 韩国 | 感动 | 韩国电影 | 温暖 | 童年 | 感人 | 爱

    简  介  

      为了方便找工作,妈领着7岁的相宇(俞承浩饰)去乡下的外婆家,想把他暂时留在那里。外婆(金亦芬饰)年事已高,不能说话也不识字。而一直生活在城市里的孙子相宇,刚开始无法适应连游戏机、电池都没得卖的乡下生活。他开始蛮横地流露出不满,抱怨这个抱怨那。为了买电池,偷走外婆的银头簪拿去卖;外婆得知孙子想吃炸鸡,却只理解到鸡肉,炖了只鸡给孙子吃,却被生气的相宇踢翻了。
      老人家默默包容着孙子的一切,渐渐的,相宇也体会到外婆的良苦用心,适应并喜欢上了乡下生活。

    获奖情况  

      第22届香港电影金像奖(2003)
      最佳亚洲电影(提名)
    1. Video
    2. ID                                       : 1
    3. Format                                   : AVC
    4. Format/Info                              : Advanced Video Codec
    5. Format profile                           : High@L4
    6. Format settings                          : CABAC / 4 Ref Frames
    7. Format settings, CABAC                   : Yes
    8. Format settings, Reference frames        : 4 frames
    9. Codec ID                                 : V_MPEG4/ISO/AVC
    10. Duration                                 : 1 h 27 min
    11. Bit rate                                 : 11.5 Mb/s
    12. Width                                    : 1 920 pixels
    13. Height                                   : 1 080 pixels
    14. Display aspect ratio                     : 16:9
    15. Frame rate mode                          : Constant
    16. Frame rate                               : 24.000 FPS
    17. Color space                              : YUV
    18. Chroma subsampling                       : 4:2:0
    19. Bit depth                                : 8 bits
    20. Scan type                                : Progressive
    21. Bits/(Pixel*Frame)                       : 0.231
    22. Stream size                              : 7.05 GiB (88%)
    23. Title                                    : The.Way.Home.2002.KOREAN.1080p.BluRay.x264.DTS-FGT
    24. Writing library                          : x264 core 148 r2795M aaa9aa8
    25. Encoding settings                        : cabac=1 / ref=4 / deblock=1:-2:-2 / analyse=0x3:0x113 / me=umh / subme=9 / psy=1 / psy_rd=1.00:0.15 / mixed_ref=1 / me_range=16 / chroma_me=1 / trellis=2 / 8x8dct=1 / cqm=0 / deadzone=21,11 / fast_pskip=1 / chroma_qp_offset=-3 / threads=24 / lookahead_threads=3 / sliced_threads=0 / nr=0 / decimate=1 / interlaced=0 / bluray_compat=0 / constrained_intra=0 / bframes=3 / b_pyramid=2 / b_adapt=1 / b_bias=0 / direct=3 / weightb=1 / open_gop=0 / weightp=2 / keyint=250 / keyint_min=25 / scenecut=40 / intra_refresh=0 / rc_lookahead=50 / rc=2pass / mbtree=1 / bitrate=11500 / ratetol=1.0 / qcomp=0.60 / qpmin=0 / qpmax=69 / qpstep=4 / cplxblur=20.0 / qblur=0.5 / vbv_maxrate=31250 / vbv_bufsize=31250 / nal_hrd=none / filler=0 / ip_ratio=1.40 / aq=1:1.00
    26. Language                                 : Korean
    27. Default                                  : Yes
    28. Forced                                   : No

    29. Audio
    30. ID                                       : 2
    31. Format                                   : DTS
    32. Format/Info                              : Digital Theater Systems
    33. Codec ID                                 : A_DTS
    34. Duration                                 : 1 h 27 min
    35. Bit rate mode                            : Constant
    36. Bit rate                                 : 1 509 kb/s
    37. Channel(s)                               : 6 channels
    38. Channel layout                           : C L R Ls Rs LFE
    39. Sampling rate                            : 48.0 kHz
    40. Frame rate                               : 93.750 FPS (512 SPF)
    41. Bit depth                                : 24 bits
    42. Compression mode                         : Lossy
    43. Stream size                              : 947 MiB (12%)
    44. Title                                    : The.Way.Home.2002.KOREAN.1080p.BluRay.x264.DTS-FGT
    45. Language                                 : Korean
    46. Default                                  : Yes
    47. Forced                                   : No

    48. Text
    49. ID                                       : 3
    50. Format                                   : UTF-8
    51. Codec ID                                 : S_TEXT/UTF8
    52. Codec ID/Info                            : UTF-8 Plain Text
    53. Duration                                 : 1 h 24 min
    54. Bit rate                                 : 12 b/s
    55. Count of elements                        : 392
    56. Stream size                              : 7.59 KiB (0%)
    57. Language                                 : English
    58. Default                                  : Yes
    59. Forced                                   : No

    60. Menu
    61. 00:00:00.000                             : en:Chapter 1
    62. 00:03:39.208                             : en:Chapter 2
    63. 00:07:33.417                             : en:Chapter 3
    64. 00:10:26.417                             : en:Chapter 4
    65. 00:17:12.417                             : en:Chapter 5
    66. 00:20:01.417                             : en:Chapter 6
    67. 00:21:51.208                             : en:Chapter 7
    68. 00:23:29.417                             : en:Chapter 8
    69. 00:30:21.417                             : en:Chapter 9
    70. 00:33:16.417                             : en:Chapter 10
    71. 00:41:47.417                             : en:Chapter 11
    72. 00:44:39.417                             : en:Chapter 12
    73. 00:51:13.417                             : en:Chapter 13
    74. 00:58:30.417                             : en:Chapter 14
    75. 01:04:58.417                             : en:Chapter 15
    76. 01:08:18.417                             : en:Chapter 16
    77. 01:10:12.417                             : en:Chapter 17
    78. 01:14:27.417                             : en:Chapter 18
    79. 01:16:36.417                             : en:Chapter 19
    80. 01:19:30.417                             : en:Chapter 20
    复制代码

    爱·回家 The.Way.Home.2002.KOREAN.1080p.BluRay.x264.DTS-FGT 7.98GB-2.png 爱·回家 The.Way.Home.2002.KOREAN.1080p.BluRay.x264.DTS-FGT 7.98GB-3.png 爱·回家 The.Way.Home.2002.KOREAN.1080p.BluRay.x264.DTS-FGT 7.98GB-4.png

    游客,如果您要查看本帖隐藏内容请回复



    大中午的快困死蓝光君了
    回复

    使用道具 举报

    该用户从未签到

    0

    主题

    1万

    帖子

    1万

    积分

    论坛元老

    Rank: 8Rank: 8

    积分
    11805
    发表于 2020-1-12 20:29:14 | 显示全部楼层
    回复 支持 反对

    使用道具 举报

    该用户从未签到

    0

    主题

    1万

    帖子

    1万

    积分

    论坛元老

    Rank: 8Rank: 8

    积分
    18946
    发表于 2020-1-13 14:06:21 | 显示全部楼层
    回复 支持 反对

    使用道具 举报

    该用户从未签到

    0

    主题

    1万

    帖子

    1万

    积分

    论坛元老

    Rank: 8Rank: 8

    积分
    12926
    发表于 2020-1-14 15:54:18 | 显示全部楼层
    回复 支持 反对

    使用道具 举报

    该用户从未签到

    0

    主题

    1万

    帖子

    1万

    积分

    论坛元老

    Rank: 8Rank: 8

    积分
    11805
    发表于 2020-1-14 21:18:39 | 显示全部楼层
    回复 支持 反对

    使用道具 举报

    该用户从未签到

    0

    主题

    1万

    帖子

    1万

    积分

    论坛元老

    Rank: 8Rank: 8

    积分
    11805
    发表于 2020-1-17 02:56:16 | 显示全部楼层
    回复 支持 反对

    使用道具 举报

    该用户从未签到

    0

    主题

    1162

    帖子

    1136

    积分

    金牌会员

    Rank: 6Rank: 6

    积分
    1136
    发表于 2020-1-18 00:05:47 | 显示全部楼层
    回复 支持 反对

    使用道具 举报

    该用户从未签到

    0

    主题

    2646

    帖子

    2573

    积分

    金牌会员

    Rank: 6Rank: 6

    积分
    2573
    发表于 2020-1-18 04:57:20 | 显示全部楼层

    是个好电影!必须要看的!多谢分享!
    回复 支持 反对

    使用道具 举报

    该用户从未签到

    0

    主题

    1万

    帖子

    1万

    积分

    论坛元老

    Rank: 8Rank: 8

    积分
    18946
    发表于 2020-1-19 01:06:07 | 显示全部楼层
    回复 支持 反对

    使用道具 举报

    该用户从未签到

    0

    主题

    1万

    帖子

    1万

    积分

    论坛元老

    Rank: 8Rank: 8

    积分
    18946
    发表于 2020-1-22 22:42:54 | 显示全部楼层
    这个帖子不回对不起自己!我想我是一天也不能离开蓝光电影网
    回复 支持 反对

    使用道具 举报

    懒得打字嘛,点击右侧快捷回复 【右侧内容,后台自定义】
    您需要登录后才可以回帖 登录 | 立即注册

    本版积分规则

    郑重声明,本站所有作品片源来自互联网公开渠道,均为网友上传交流学习,影视版权均归原电影公司所有,如有侵犯版权,请与 2322694662@qq.com 联系,我们将立即删除。

    小黑屋|手机版|Archiver|百度统计|投诉|蓝光电影下载

    GMT+8, 2020-7-13 14:06 , Processed in 0.043758 second(s), 21 queries , Gzip On, MemCached On.

    Powered by Discuz! X3.4

    © 2001-2013 Comsenz Inc.

    快速回复 返回顶部 返回列表