快捷导航
查看: 353|回复: 17

[剧情] 寄生虫 Parasite.2019.1080p.BluRay.x264-REGRET 9.85GB

[复制链接]
  • TA的每日心情
    开心
    2020-2-15 21:32
  • 签到天数: 240 天

    [LV.8]以坛为家I

    1万

    主题

    1万

    帖子

    4万

    积分

    管理员

    蓝光君

    Rank: 9Rank: 9Rank: 9

    积分
    46696

    活跃会员热心会员推广达人突出贡献优秀版主荣誉管理论坛元老

    QQ
    发表于 2020-1-12 22:16:17 | 显示全部楼层 |阅读模式

    寄生虫 Parasite.2019.1080p.BluRay.x264-REGRET 9.85GB-1.png

    译  名 寄生虫 / Gisaengchung / Parasite / 上流寄生族(港) / 寄生上流(台) / ?????
    片  名 ???
    年  代 2019
    产  地 韩国
    类  别 剧情
    语  言 韩语
    上映日期 2019-05-21(戛纳电影节) / 2019-05-30(韩国)
    IMDb评分  8.6/10 from 10105 users
    IMDb链接  http://www.imdb.com/title/tt6751668
    豆瓣评分 8.9/10 from 177472 users
    豆瓣链接 https://movie.douban.com/subject/27010768/
    片  长 132分钟
    导  演 奉俊昊 Joon-ho Bong
    编  剧 奉俊昊 Joon-ho Bong
    主  演 宋康昊 Kang-ho Song
           李善均 Seon-gyun Lee
           赵汝贞 Yeo-Jeong Jo
           崔宇植 Woo-Sik Choi
           朴素丹 Su-dam Park


    标  签 韩国 | 人性 | 剧情 | 社会 | 2019 | 黑色幽默 | 戛纳 | 金棕榈

    简  介  

      《寄生虫》讲述了发生在身份地位悬殊的两个家庭身上的故事:宋康昊饰演的无业游民父亲基泽,让寄托了家人生计希望的大儿子(崔宇植 饰)前往IT公司老总朴社长(李善均 饰)家应聘课外教师,随之发生了一连串意外事件。

    获奖情况  

      第72届戛纳电影节(2019)
      主竞赛单元 金棕榈奖 奉俊昊
    1. Video
    2. ID                                       : 1
    3. Format                                   : AVC
    4. Format/Info                              : Advanced Video Codec
    5. Format profile                           : High@L4
    6. Format settings                          : CABAC / 5 Ref Frames
    7. Format settings, CABAC                   : Yes
    8. Format settings, Reference frames        : 5 frames
    9. Codec ID                                 : V_MPEG4/ISO/AVC
    10. Duration                                 : 2 h 11 min
    11. Bit rate                                 : 9 173 kb/s
    12. Width                                    : 1 920 pixels
    13. Height                                   : 808 pixels
    14. Display aspect ratio                     : 2.40:1
    15. Frame rate mode                          : Constant
    16. Frame rate                               : 24.000 FPS
    17. Color space                              : YUV
    18. Chroma subsampling                       : 4:2:0
    19. Bit depth                                : 8 bits
    20. Scan type                                : Progressive
    21. Bits/(Pixel*Frame)                       : 0.246
    22. Stream size                              : 8.44 GiB (86%)
    23. Writing library                          : x264 core 159 r2991 1771b55
    24. Encoding settings                        : cabac=1 / ref=5 / deblock=1:-3:-3 / analyse=0x3:0x133 / me=umh / subme=9 / psy=1 / psy_rd=1.00:0.00 / mixed_ref=1 / me_range=16 / chroma_me=1 / trellis=2 / 8x8dct=1 / cqm=0 / deadzone=21,11 / fast_pskip=0 / chroma_qp_offset=-2 / threads=24 / lookahead_threads=2 / sliced_threads=0 / nr=0 / decimate=1 / interlaced=0 / bluray_compat=0 / constrained_intra=0 / bframes=3 / b_pyramid=2 / b_adapt=1 / b_bias=0 / direct=3 / weightb=1 / open_gop=0 / weightp=2 / keyint=240 / keyint_min=24 / scenecut=40 / intra_refresh=0 / rc_lookahead=50 / rc=2pass / mbtree=1 / bitrate=9173 / ratetol=1.0 / qcomp=0.60 / qpmin=0 / qpmax=69 / qpstep=4 / cplxblur=20.0 / qblur=0.5 / ip_ratio=1.40 / aq=1:1.00
    25. Language                                 : English
    26. Default                                  : Yes
    27. Forced                                   : No

    28. Audio
    29. ID                                       : 2
    30. Format                                   : DTS
    31. Format/Info                              : Digital Theater Systems
    32. Codec ID                                 : A_DTS
    33. Duration                                 : 2 h 11 min
    34. Bit rate mode                            : Constant
    35. Bit rate                                 : 1 509 kb/s
    36. Channel(s)                               : 6 channels
    37. Channel layout                           : C L R Ls Rs LFE
    38. Sampling rate                            : 48.0 kHz
    39. Frame rate                               : 93.750 FPS (512 SPF)
    40. Bit depth                                : 24 bits
    41. Compression mode                         : Lossy
    42. Stream size                              : 1.39 GiB (14%)
    43. Language                                 : Korean
    44. Default                                  : Yes
    45. Forced                                   : No

    46. Text
    47. ID                                       : 3
    48. Format                                   : UTF-8
    49. Codec ID                                 : S_TEXT/UTF8
    50. Codec ID/Info                            : UTF-8 Plain Text
    51. Duration                                 : 2 h 5 min
    52. Bit rate                                 : 53 b/s
    53. Count of elements                        : 1661
    54. Stream size                              : 49.4 KiB (0%)
    55. Title                                    : English Forced
    56. Language                                 : English
    57. Default                                  : Yes
    58. Forced                                   : Yes

    59. Menu
    60. 00:00:00.000                             : en:00:00:00.000
    61. 00:12:18.000                             : en:00:12:18.000
    62. 00:20:36.250                             : en:00:20:36.250
    63. 00:31:43.833                             : en:00:31:43.833
    64. 00:44:14.875                             : en:00:44:14.875
    65. 00:55:21.125                             : en:00:55:21.125
    66. 01:05:35.250                             : en:01:05:35.250
    67. 01:18:24.417                             : en:01:18:24.417
    68. 01:27:05.208                             : en:01:27:05.208
    69. 01:38:44.375                             : en:01:38:44.375
    70. 01:51:14.000                             : en:01:51:14.000
    71. 01:59:30.417                             : en:01:59:30.417
    复制代码

    寄生虫 Parasite.2019.1080p.BluRay.x264-REGRET 9.85GB-2.png
    游客,如果您要查看本帖隐藏内容请回复




    大中午的快困死蓝光君了
    回复

    使用道具 举报

    该用户从未签到

    0

    主题

    1万

    帖子

    1万

    积分

    论坛元老

    Rank: 8Rank: 8

    积分
    18946
    发表于 2020-1-12 22:16:27 | 显示全部楼层
    回复 支持 反对

    使用道具 举报

    该用户从未签到

    0

    主题

    1万

    帖子

    1万

    积分

    论坛元老

    Rank: 8Rank: 8

    积分
    11805
    发表于 2020-1-13 11:24:39 | 显示全部楼层

    非常精彩的电影,下来收藏,感谢楼主
    回复 支持 反对

    使用道具 举报

    该用户从未签到

    0

    主题

    2336

    帖子

    2321

    积分

    金牌会员

    Rank: 6Rank: 6

    积分
    2321
    发表于 2020-1-13 11:25:03 | 显示全部楼层
    感谢楼主的无私分享!要想蓝光高清电影网好 就靠你我他
    回复 支持 反对

    使用道具 举报

  • TA的每日心情
    开心
    2020-5-14 08:01
  • 签到天数: 44 天

    [LV.5]常住居民I

    0

    主题

    78

    帖子

    358

    积分

    中级会员

    Rank: 3Rank: 3

    积分
    358
    发表于 2020-1-13 11:27:28 | 显示全部楼层

    既然你诚信诚意的推荐了,那我就勉为其难的看看吧!蓝光电影网不走平凡路。
    回复 支持 反对

    使用道具 举报

    该用户从未签到

    0

    主题

    1万

    帖子

    1万

    积分

    论坛元老

    Rank: 8Rank: 8

    积分
    18946
    发表于 2020-1-13 11:27:39 | 显示全部楼层
    回复 支持 反对

    使用道具 举报

    该用户从未签到

    0

    主题

    1369

    帖子

    1340

    积分

    金牌会员

    Rank: 6Rank: 6

    积分
    1340
    发表于 2020-1-13 13:42:49 | 显示全部楼层
    这个帖子不回对不起自己!我想我是一天也不能离开蓝光电影网
    回复 支持 反对

    使用道具 举报

    该用户从未签到

    0

    主题

    1万

    帖子

    1万

    积分

    论坛元老

    Rank: 8Rank: 8

    积分
    11805
    发表于 2020-1-13 14:10:25 | 显示全部楼层
    回复 支持 反对

    使用道具 举报

    该用户从未签到

    0

    主题

    1万

    帖子

    1万

    积分

    论坛元老

    Rank: 8Rank: 8

    积分
    18946
    发表于 2020-1-13 18:04:21 | 显示全部楼层

    是个好电影!必须要看的!多谢分享!
    回复 支持 反对

    使用道具 举报

  • TA的每日心情
    开心
    2020-1-23 13:11
  • 签到天数: 5 天

    [LV.2]偶尔看看I

    0

    主题

    10

    帖子

    30

    积分

    新手上路

    Rank: 1

    积分
    30
    发表于 2020-1-20 14:59:27 | 显示全部楼层
    回复 支持 反对

    使用道具 举报

    懒得打字嘛,点击右侧快捷回复 【右侧内容,后台自定义】
    您需要登录后才可以回帖 登录 | 立即注册

    本版积分规则

    郑重声明,本站所有作品片源来自互联网公开渠道,均为网友上传交流学习,影视版权均归原电影公司所有,如有侵犯版权,请与 2322694662@qq.com 联系,我们将立即删除。

    小黑屋|手机版|Archiver|百度统计|投诉|蓝光电影下载

    GMT+8, 2020-7-13 13:18 , Processed in 0.022029 second(s), 20 queries , Gzip On, MemCached On.

    Powered by Discuz! X3.4

    © 2001-2013 Comsenz Inc.

    快速回复 返回顶部 返回列表