快捷导航
查看: 346|回复: 14

[剧情] 坂道上的阿波罗 Kids.On.The.Slope.2018.JAPANESE.1080p.BluRay.x264.DTS-iKiW 9.76GB

[复制链接]
  • TA的每日心情
    开心
    2020-2-15 21:32
  • 签到天数: 240 天

    [LV.8]以坛为家I

    1万

    主题

    1万

    帖子

    6万

    积分

    管理员

    蓝光君

    Rank: 9Rank: 9Rank: 9

    积分
    67837

    活跃会员热心会员推广达人突出贡献优秀版主荣誉管理论坛元老

    QQ
    发表于 2020-2-15 10:18:43 | 显示全部楼层 |阅读模式


    坂道上的阿波罗 Kids.On.The.Slope.2018.JAPANESE.1080p.BluRay.x264.DTS-iKiW 9.76GB-1.png

    译  名 坂道上的阿波罗 / Kids on the Slope / Sakamichi no Apollon
    片  名 坂道のアポロン
    年  代 2018
    产  地 日本
    类  别 剧情
    语  言 日语
    上映日期 2018-03-10(日本)
    IMDb评分  7.0/10 from 404 users
    IMDb链接  https://www.imdb.com/title/tt6835804
    豆瓣评分 6.6/10 from 2394 users
    豆瓣链接 https://movie.douban.com/subject/27021143/
    片  长 120分钟
    导  演 三木孝浩 Takahiro Miki
    编  剧 高桥泉 Izumi Takahashi
    主  演 知念侑李 Yuri Chinen
           中川大志 Taishi Nakagawa
           小松菜奈 Nana Komatsu
           藤冈靛 Tatsuo Dean Fujioka
           中村梅雀 Baijaku Nakamura
           真野惠里菜 Erina Mano
           山下容莉枝 Yorie Yamashita
           松村北斗 Hokuto Matsumura
           野间口彻 T?ru Nomaguchi


    标  签 日本 | 小松菜奈 | 日本电影 | 青春 | 漫画改编 | 2018 | 日影 | 知念侑李

    简  介  

      男主角西见薰,因为父亲工作的关系,自少便需要不断转校。在1966年的初夏,这次薰由城巿的横须贺转学至乡下的长崎県。由于从小学开始便不停地转学,所以开始在适应新环境当中感到压力,现今会因为只要有一点压力便会变得想呕吐了。但在新学校里,薰却遇上了同班的不良少年川渕千太郎,并与他的青梅竹马迎律子、以及学姐深堀百合香四人便展开了以朋友、恋爱,以及爵士乐的春青成长故事。

    获奖情况  

      第42届日本电影学院奖(2019)
      最佳新人 中川大志
    1. Video
    2. ID                                       : 1
    3. Format                                   : AVC
    4. Format/Info                              : Advanced Video Codec
    5. Format profile                           : High@L4
    6. Format settings                          : CABAC / 5 Ref Frames
    7. Format settings, CABAC                   : Yes
    8. Format settings, Reference frames        : 5 frames
    9. Codec ID                                 : V_MPEG4/ISO/AVC
    10. Duration                                 : 1 h 59 min
    11. Bit rate                                 : 10.1 Mb/s
    12. Width                                    : 1 920 pixels
    13. Height                                   : 802 pixels
    14. Display aspect ratio                     : 2.40:1
    15. Frame rate mode                          : Constant
    16. Frame rate                               : 23.976 (24000/1001) FPS
    17. Color space                              : YUV
    18. Chroma subsampling                       : 4:2:0
    19. Bit depth                                : 8 bits
    20. Scan type                                : Progressive
    21. Bits/(Pixel*Frame)                       : 0.275
    22. Stream size                              : 8.48 GiB (87%)
    23. Writing library                          : x264 core 129 r2245+704+36 8e61944 tMod+MixAQ [High@L4:2:0 X86_64]
    24. Encoding settings                        : cabac=1 / ref=5 / deblock=1:-3:-3 / analyse=0x3:0x133 / me=umh / subme=11 / psy=1 / fade_compensate=0.00 / psy_rd=1.05:0.10 / mixed_ref=1 / me_range=64 / chroma_me=1 / trellis=2 / 8x8dct=1 / cqm=0 / deadzone=21,11 / fast_pskip=0 / chroma_qp_offset=-3 / threads=18 / lookahead_threads=3 / sliced_threads=0 / nr=0 / decimate=0 / interlaced=0 / bluray_compat=0 / constrained_intra=0 / fgo=0 / bframes=10 / b_pyramid=2 / b_adapt=2 / b_bias=0 / direct=3 / weightb=1 / open_gop=0 / weightp=2 / keyint=250 / keyint_min=23 / scenecut=40 / intra_refresh=0 / rc=2pass / mbtree=0 / bitrate=10138 / ratetol=1.0 / qcomp=0.70 / qpmin=0 / qpmax=69 / qpstep=4 / cplxblur=20.0 / qblur=0.5 / ip_ratio=1.40 / pb_ratio=1.30 / aq=1 / aq-strength=0.90 / aq-sensitivity=10.00 / aq-ifactor=1.00 / aq-pfactor=1.00 / aq-bfactor=1.00 / aq2=0
    25. Language                                 : Japanese
    26. Default                                  : Yes
    27. Forced                                   : No

    28. Audio
    29. ID                                       : 2
    30. Format                                   : DTS
    31. Format/Info                              : Digital Theater Systems
    32. Codec ID                                 : A_DTS
    33. Duration                                 : 1 h 59 min
    34. Bit rate mode                            : Constant
    35. Bit rate                                 : 1 509 kb/s
    36. Channel(s)                               : 6 channels
    37. Channel layout                           : C L R Ls Rs LFE
    38. Sampling rate                            : 48.0 kHz
    39. Frame rate                               : 93.750 FPS (512 SPF)
    40. Bit depth                                : 24 bits
    41. Compression mode                         : Lossy
    42. Stream size                              : 1.26 GiB (13%)
    43. Language                                 : Japanese
    44. Default                                  : Yes
    45. Forced                                   : No

    46. Text #1
    47. ID                                       : 3
    48. Format                                   : UTF-8
    49. Codec ID                                 : S_TEXT/UTF8
    50. Codec ID/Info                            : UTF-8 Plain Text
    51. Duration                                 : 1 h 59 min
    52. Bit rate                                 : 26 b/s
    53. Count of elements                        : 980
    54. Stream size                              : 23.2 KiB (0%)
    55. Language                                 : English
    56. Default                                  : Yes
    57. Forced                                   : No

    58. Text #2
    59. ID                                       : 4
    60. Format                                   : ASS
    61. Codec ID                                 : S_TEXT/ASS
    62. Codec ID/Info                            : Advanced Sub Station Alpha
    63. Duration                                 : 1 h 54 min
    64. Bit rate                                 : 63 b/s
    65. Count of elements                        : 1041
    66. Compression mode                         : Lossless
    67. Stream size                              : 53.2 KiB (0%)
    68. Language                                 : Chinese
    69. Default                                  : No
    70. Forced                                   : No

    71. Menu
    72. 00:00:00.000                             : en:00:00:00.000
    73. 00:11:05.748                             : en:00:11:05.748
    74. 00:21:09.810                             : en:00:21:09.810
    75. 00:28:20.490                             : en:00:28:20.490
    76. 00:35:07.772                             : en:00:35:07.772
    77. 00:45:24.346                             : en:00:45:24.346
    78. 00:55:15.312                             : en:00:55:15.312
    79. 01:04:23.359                             : en:01:04:23.359
    80. 01:08:52.169                             : en:01:08:52.169
    81. 01:20:45.048                             : en:01:20:45.048
    82. 01:32:13.152                             : en:01:32:13.152
    83. 01:41:46.475                             : en:01:41:46.475
    84. 01:50:58.568                             : en:01:50:58.568
    85. 01:55:46.439                             : en:01:55:46.439
    86. 01:59:46.179                             : en:01:59:46.179
    复制代码

    坂道上的阿波罗 Kids.On.The.Slope.2018.JAPANESE.1080p.BluRay.x264.DTS-iKiW 9.76GB-2.png 坂道上的阿波罗 Kids.On.The.Slope.2018.JAPANESE.1080p.BluRay.x264.DTS-iKiW 9.76GB-3.png 坂道上的阿波罗 Kids.On.The.Slope.2018.JAPANESE.1080p.BluRay.x264.DTS-iKiW 9.76GB-4.png


    游客,如果您要查看本帖隐藏内容请回复


    大中午的快困死蓝光君了
    回复

    使用道具 举报

    该用户从未签到

    0

    主题

    2333

    帖子

    2218

    积分

    金牌会员

    Rank: 6Rank: 6

    积分
    2218
    发表于 2020-2-15 10:19:04 | 显示全部楼层
    回复 支持 反对

    使用道具 举报

    该用户从未签到

    0

    主题

    1万

    帖子

    1万

    积分

    论坛元老

    Rank: 8Rank: 8

    积分
    16484
    发表于 2020-2-16 12:11:19 | 显示全部楼层
    这个帖子不回对不起自己!我想我是一天也不能离开蓝光电影网
    回复 支持 反对

    使用道具 举报

    该用户从未签到

    0

    主题

    828

    帖子

    -419

    积分

    限制会员

    积分
    -419
    发表于 2020-2-18 07:44:35 | 显示全部楼层
    回复 支持 反对

    使用道具 举报

    该用户从未签到

    0

    主题

    1万

    帖子

    1万

    积分

    论坛元老

    Rank: 8Rank: 8

    积分
    10325
    发表于 2020-2-18 19:53:11 | 显示全部楼层
    楼主太厉害了!楼主,电影应该很好看我觉得蓝光电影下载真是个好地方!
    回复 支持 反对

    使用道具 举报

    该用户从未签到

    0

    主题

    1万

    帖子

    1万

    积分

    论坛元老

    Rank: 8Rank: 8

    积分
    10325
    发表于 2020-2-19 01:35:19 | 显示全部楼层
    回复 支持 反对

    使用道具 举报

    该用户从未签到

    0

    主题

    7088

    帖子

    6879

    积分

    论坛元老

    Rank: 8Rank: 8

    积分
    6879
    发表于 2020-2-26 15:42:21 | 显示全部楼层
    回复 支持 反对

    使用道具 举报

    该用户从未签到

    0

    主题

    1万

    帖子

    1万

    积分

    论坛元老

    Rank: 8Rank: 8

    积分
    11423
    发表于 2020-2-26 18:49:21 | 显示全部楼层
    回复 支持 反对

    使用道具 举报

    该用户从未签到

    0

    主题

    1万

    帖子

    1万

    积分

    论坛元老

    Rank: 8Rank: 8

    积分
    16484
    发表于 2020-2-29 18:15:57 | 显示全部楼层
    回复 支持 反对

    使用道具 举报

    该用户从未签到

    0

    主题

    97

    帖子

    -48

    积分

    限制会员

    积分
    -48
    发表于 2020-3-2 06:21:01 | 显示全部楼层
    回复 支持 反对

    使用道具 举报

    懒得打字嘛,点击右侧快捷回复 【右侧内容,后台自定义】
    您需要登录后才可以回帖 登录 | 立即注册

    本版积分规则

    郑重声明,本站所有作品片源来自互联网公开渠道,均为网友上传交流学习,影视版权均归原电影公司所有,如有侵犯版权,请与 2322694662@qq.com 联系,我们将立即删除。

    小黑屋|手机版|Archiver|百度统计|投诉|蓝光电影下载

    GMT+8, 2021-1-19 23:24 , Processed in 0.048795 second(s), 20 queries , Gzip On, MemCached On.

    Powered by Discuz! X3.4

    © 2001-2013 Comsenz Inc.

    快速回复 返回顶部 返回列表