快捷导航
查看: 41|回复: 13

[动作] 龙先生 Mr.Long.2017.720p.BluRay.x264-USURY 4.37GB

[复制链接]
  • TA的每日心情
    开心
    2020-2-15 21:32
  • 签到天数: 240 天

    [LV.8]以坛为家I

    1万

    主题

    1万

    帖子

    3万

    积分

    管理员

    蓝光君

    Rank: 9Rank: 9Rank: 9

    积分
    37086

    活跃会员热心会员推广达人突出贡献优秀版主荣誉管理论坛元老

    QQ
    发表于 2020-3-22 22:14:11 | 显示全部楼层 |阅读模式

    龙先生 Mr.Long.2017.720p.BluRay.x264-USURY 4.37GB-1.png

    译  名 龙先生 / Mr. Long
    片  名 ミスター?ロン
    年  代 2017
    产  地 日本 / 中国香港 / 中国台湾
    类  别 剧情
    语  言 汉语普通话 / 日语 / 闽南语
    上映日期 2017-02-13(柏林电影节) / 2017-12-16(日本)
    IMDb评分  7.1/10 from 837 users
    IMDb链接  https://www.imdb.com/title/tt6509862
    豆瓣评分 6.8/10 from 3050 users
    豆瓣链接 https://movie.douban.com/subject/26952576/
    片  长 129分钟
    导  演 萨布 SABU
    编  剧 萨布 SABU
    主  演 张震 Chen Chang
           青柳翔 Sho Aoyagi
           姚以缇 Eleven Yao
           白润音 Run-yin Bai
           有福正志 Masashi Arifuku
           诹访太朗 Tar? Suwa
           大草理乙子 Ritsuko Ohkusa
           歌川椎子 Shiiko Utagawa
           福地佑介 Yusuke Fukuchi
           千叶哲也 Tetsuya Chiba


    标  签 日本 | 台湾 | 剧情 | 犯罪 | 張先生 | 温情 | 2017 | 柏林电影节

    简  介  

      由张震演出日本导演萨布(Sabu)的新片《龙先生》(Mr.Long)入选柏林影展,并将角逐柏林影帝。

    获奖情况  

      第67届柏林国际电影节(2017)
      金熊奖 最佳影片(提名) 萨布
    1. Video
    2. ID                                       : 1
    3. Format                                   : AVC
    4. Format/Info                              : Advanced Video Codec
    5. Format profile                           : High@L4
    6. Format settings                          : CABAC / 5 Ref Frames
    7. Format settings, CABAC                   : Yes
    8. Format settings, Reference frames        : 5 frames
    9. Codec ID                                 : V_MPEG4/ISO/AVC
    10. Duration                                 : 2 h 9 min
    11. Bit rate                                 : 4 078 kb/s
    12. Width                                    : 1 280 pixels
    13. Height                                   : 536 pixels
    14. Display aspect ratio                     : 2.40:1
    15. Frame rate mode                          : Constant
    16. Frame rate                               : 24.000 FPS
    17. Color space                              : YUV
    18. Chroma subsampling                       : 4:2:0
    19. Bit depth                                : 8 bits
    20. Scan type                                : Progressive
    21. Bits/(Pixel*Frame)                       : 0.248
    22. Stream size                              : 3.67 GiB (84%)
    23. Writing library                          : x264 core 157 r2969 d4099dd
    24. Encoding settings                        : cabac=1 / ref=5 / deblock=1:-3:-3 / analyse=0x3:0x133 / me=umh / subme=9 / psy=1 / psy_rd=1.00:0.00 / mixed_ref=1 / me_range=16 / chroma_me=1 / trellis=2 / 8x8dct=1 / cqm=0 / deadzone=21,11 / fast_pskip=0 / chroma_qp_offset=-2 / threads=17 / lookahead_threads=1 / sliced_threads=0 / nr=0 / decimate=1 / interlaced=0 / bluray_compat=0 / constrained_intra=0 / bframes=3 / b_pyramid=2 / b_adapt=1 / b_bias=0 / direct=3 / weightb=1 / open_gop=0 / weightp=2 / keyint=240 / keyint_min=24 / scenecut=40 / intra_refresh=0 / rc_lookahead=50 / rc=2pass / mbtree=1 / bitrate=4078 / ratetol=1.0 / qcomp=0.60 / qpmin=0 / qpmax=69 / qpstep=4 / cplxblur=20.0 / qblur=0.5 / ip_ratio=1.40 / aq=1:1.00
    25. Language                                 : English
    26. Default                                  : Yes
    27. Forced                                   : No

    28. Audio
    29. ID                                       : 2
    30. Format                                   : DTS
    31. Format/Info                              : Digital Theater Systems
    32. Codec ID                                 : A_DTS
    33. Duration                                 : 2 h 9 min
    34. Bit rate mode                            : Constant
    35. Bit rate                                 : 768 kb/s
    36. Channel(s)                               : 6 channels
    37. Channel layout                           : C L R Ls Rs LFE
    38. Sampling rate                            : 48.0 kHz
    39. Frame rate                               : 93.750 FPS (512 SPF)
    40. Bit depth                                : 24 bits
    41. Compression mode                         : Lossy
    42. Stream size                              : 709 MiB (16%)
    43. Language                                 : Japanese
    44. Default                                  : Yes
    45. Forced                                   : No

    46. Text #1
    47. ID                                       : 3
    48. Format                                   : UTF-8
    49. Codec ID                                 : S_TEXT/UTF8
    50. Codec ID/Info                            : UTF-8 Plain Text
    51. Duration                                 : 2 h 0 min
    52. Bit rate                                 : 12 b/s
    53. Count of elements                        : 518
    54. Stream size                              : 11.0 KiB (0%)
    55. Title                                    : English
    56. Language                                 : English
    57. Default                                  : Yes
    58. Forced                                   : Yes

    59. Text #2
    60. ID                                       : 4
    61. Format                                   : UTF-8
    62. Codec ID                                 : S_TEXT/UTF8
    63. Codec ID/Info                            : UTF-8 Plain Text
    64. Duration                                 : 2 h 0 min
    65. Bit rate                                 : 13 b/s
    66. Count of elements                        : 518
    67. Stream size                              : 11.9 KiB (0%)
    68. Title                                    : German
    69. Language                                 : German
    70. Default                                  : No
    71. Forced                                   : No

    72. Menu
    73. 00:00:00.000                             : en:00:00:00.000
    74. 00:12:48.958                             : en:00:12:48.958
    75. 00:20:17.000                             : en:00:20:17.000
    76. 00:36:30.458                             : en:00:36:30.458
    77. 00:51:53.542                             : en:00:51:53.542
    78. 01:11:44.875                             : en:01:11:44.875
    79. 01:25:30.042                             : en:01:25:30.042
    80. 01:29:47.917                             : en:01:29:47.917
    81. 01:39:34.917                             : en:01:39:34.917
    82. 01:58:17.667                             : en:01:58:17.667
    83. 02:04:03.167                             : en:02:04:03.167
    复制代码

    龙先生 Mr.Long.2017.720p.BluRay.x264-USURY 4.37GB-2.png

    游客,如果您要查看本帖隐藏内容请回复



    大中午的快困死蓝光君了
    回复

    使用道具 举报

    该用户从未签到

    0

    主题

    1万

    帖子

    1万

    积分

    论坛元老

    Rank: 8Rank: 8

    积分
    18929
    发表于 2020-3-22 22:15:13 | 显示全部楼层
    回复 支持 反对

    使用道具 举报

    该用户从未签到

    0

    主题

    2527

    帖子

    2511

    积分

    金牌会员

    Rank: 6Rank: 6

    积分
    2511
    发表于 2020-3-22 22:16:13 | 显示全部楼层
    回复 支持 反对

    使用道具 举报

    该用户从未签到

    0

    主题

    1万

    帖子

    1万

    积分

    论坛元老

    Rank: 8Rank: 8

    积分
    12133
    发表于 2020-3-23 03:00:53 | 显示全部楼层
    回复 支持 反对

    使用道具 举报

    该用户从未签到

    0

    主题

    808

    帖子

    774

    积分

    高级会员

    Rank: 4

    积分
    774
    发表于 2020-3-23 12:09:37 | 显示全部楼层

    非常精彩的电影,下来收藏,感谢楼主
    回复 支持 反对

    使用道具 举报

    该用户从未签到

    0

    主题

    33

    帖子

    6

    积分

    新手上路

    Rank: 1

    积分
    6
    发表于 2020-3-23 17:19:09 | 显示全部楼层
    感谢楼主的无私分享!要想蓝光高清电影网好 就靠你我他
    回复 支持 反对

    使用道具 举报

    该用户从未签到

    0

    主题

    2527

    帖子

    2511

    积分

    金牌会员

    Rank: 6Rank: 6

    积分
    2511
    发表于 2020-3-24 18:33:10 | 显示全部楼层
    回复 支持 反对

    使用道具 举报

    该用户从未签到

    0

    主题

    1万

    帖子

    1万

    积分

    论坛元老

    Rank: 8Rank: 8

    积分
    18929
    发表于 2020-3-24 20:17:59 | 显示全部楼层
    回复 支持 反对

    使用道具 举报

    该用户从未签到

    0

    主题

    1万

    帖子

    1万

    积分

    论坛元老

    Rank: 8Rank: 8

    积分
    18929
    发表于 2020-3-25 11:09:12 | 显示全部楼层

    是个好电影!必须要看的!多谢分享!
    回复 支持 反对

    使用道具 举报

  • TA的每日心情
    无聊
    昨天 11:03
  • 签到天数: 27 天

    [LV.4]偶尔看看III

    0

    主题

    79

    帖子

    297

    积分

    中级会员

    Rank: 3Rank: 3

    积分
    297
    发表于 2020-3-25 11:09:43 | 显示全部楼层

    这个帖子不回对不起自己!我想我是一天也不能离开蓝光电影网
    回复 支持 反对

    使用道具 举报

    懒得打字嘛,点击右侧快捷回复 【右侧内容,后台自定义】
    您需要登录后才可以回帖 登录 | 立即注册

    本版积分规则

    郑重声明,本站所有作品片源来自互联网公开渠道,均为网友上传交流学习,影视版权均归原电影公司所有,如有侵犯版权,请与 2322694662@qq.com 联系,我们将立即删除。

    小黑屋|手机版|Archiver|百度统计|投诉|蓝光电影下载

    GMT+8, 2020-4-6 05:37 , Processed in 0.035982 second(s), 21 queries , Gzip On, MemCached On.

    Powered by Discuz! X3.4

    © 2001-2013 Comsenz Inc.

    快速回复 返回顶部 返回列表