快捷导航
查看: 44|回复: 12

[剧情] 阿尔卑斯 Alps.2011.720p.BluRay.x264-USURY 4.37GB

[复制链接]
  • TA的每日心情
    开心
    2020-2-15 21:32
  • 签到天数: 240 天

    [LV.8]以坛为家I

    1万

    主题

    1万

    帖子

    3万

    积分

    管理员

    蓝光君

    Rank: 9Rank: 9Rank: 9

    积分
    37086

    活跃会员热心会员推广达人突出贡献优秀版主荣誉管理论坛元老

    QQ
    发表于 2020-3-22 22:17:01 | 显示全部楼层 |阅读模式

    阿尔卑斯 Alps.2011.720p.BluRay.x264-USURY 4.37GB-1.png

    译  名 阿尔卑斯 / Alps / 非普通服务(台)
    片  名 Αλπει?
    年  代 2011
    产  地 希腊
    类  别 剧情
    语  言 希腊语
    上映日期 2011-10-27(希腊)
    IMDb评分  6.4/10 from 9120 users
    IMDb链接  https://www.imdb.com/title/tt1859446
    豆瓣评分 6.4/10 from 443 users
    豆瓣链接 https://movie.douban.com/subject/6003157/
    片  长 93分钟
    导  演 欧格斯·兰斯莫斯  Giorgos Lanthimos
    编  剧 欧格斯·兰斯莫斯  Giorgos Lanthimos / 艾锡米斯·费利珀 Efthymis Filippou
    主  演 昂格利基·帕普利亚 Angeliki Papoulia
           亚里安妮·拉贝德 Ariane Labed
           Aris Servetalis
           Johnny Vekris


    标  签 希腊 | 2011 | 欧格斯·兰斯莫斯 | 剧情 | 希腊电影 | GiorgosLanthimos | 2010s | 希臘

    简  介  

      故事围绕一个名叫“阿尔卑斯”的另类公司展开,由医生、护士、体操选手及其教练四人组成,他们接受来自不同死者亲人、朋友、同事的委托,成为亡灵的替身,以缓解死亡对他们带来的悲伤情绪。

    获奖情况  

      第68届威尼斯电影节(2011)
      金狮奖(提名) 欧格斯·兰斯莫斯
      金奥赛拉奖 最佳编剧 埃夫西米斯·菲利普 / 欧格斯·兰斯莫斯
    1. Video
    2. ID                                       : 1
    3. Format                                   : AVC
    4. Format/Info                              : Advanced Video Codec
    5. Format profile                           : High@L4
    6. Format settings                          : CABAC / 5 Ref Frames
    7. Format settings, CABAC                   : Yes
    8. Format settings, Reference frames        : 5 frames
    9. Codec ID                                 : V_MPEG4/ISO/AVC
    10. Duration                                 : 1 h 33 min
    11. Bit rate                                 : 5 168 kb/s
    12. Width                                    : 1 280 pixels
    13. Height                                   : 544 pixels
    14. Display aspect ratio                     : 2.35:1
    15. Frame rate mode                          : Constant
    16. Frame rate                               : 23.976 (24000/1001) FPS
    17. Color space                              : YUV
    18. Chroma subsampling                       : 4:2:0
    19. Bit depth                                : 8 bits
    20. Scan type                                : Progressive
    21. Bits/(Pixel*Frame)                       : 0.310
    22. Stream size                              : 3.38 GiB (77%)
    23. Writing library                          : x264 core 157 r2969 d4099dd
    24. Encoding settings                        : cabac=1 / ref=5 / deblock=1:-3:-3 / analyse=0x3:0x133 / me=umh / subme=9 / psy=1 / psy_rd=1.00:0.00 / mixed_ref=1 / me_range=16 / chroma_me=1 / trellis=2 / 8x8dct=1 / cqm=0 / deadzone=21,11 / fast_pskip=0 / chroma_qp_offset=-2 / threads=17 / lookahead_threads=1 / sliced_threads=0 / nr=0 / decimate=1 / interlaced=0 / bluray_compat=0 / constrained_intra=0 / bframes=3 / b_pyramid=2 / b_adapt=1 / b_bias=0 / direct=3 / weightb=1 / open_gop=0 / weightp=2 / keyint=240 / keyint_min=24 / scenecut=40 / intra_refresh=0 / rc_lookahead=50 / rc=2pass / mbtree=1 / bitrate=5168 / ratetol=1.0 / qcomp=0.60 / qpmin=0 / qpmax=69 / qpstep=4 / cplxblur=20.0 / qblur=0.5 / ip_ratio=1.40 / aq=1:1.00
    25. Language                                 : English
    26. Default                                  : Yes
    27. Forced                                   : No

    28. Audio
    29. ID                                       : 2
    30. Format                                   : DTS
    31. Format/Info                              : Digital Theater Systems
    32. Codec ID                                 : A_DTS
    33. Duration                                 : 1 h 33 min
    34. Bit rate mode                            : Constant
    35. Bit rate                                 : 1 509 kb/s
    36. Channel(s)                               : 6 channels
    37. Channel layout                           : C L R Ls Rs LFE
    38. Sampling rate                            : 48.0 kHz
    39. Frame rate                               : 93.750 FPS (512 SPF)
    40. Bit depth                                : 24 bits
    41. Compression mode                         : Lossy
    42. Stream size                              : 1 011 MiB (23%)
    43. Language                                 : Greek
    44. Default                                  : Yes
    45. Forced                                   : No

    46. Text
    47. ID                                       : 3
    48. Format                                   : UTF-8
    49. Codec ID                                 : S_TEXT/UTF8
    50. Codec ID/Info                            : UTF-8 Plain Text
    51. Duration                                 : 1 h 29 min
    52. Bit rate                                 : 28 b/s
    53. Count of elements                        : 653
    54. Stream size                              : 18.4 KiB (0%)
    55. Title                                    : English
    56. Language                                 : English
    57. Default                                  : Yes
    58. Forced                                   : Yes

    59. Menu
    60. 00:00:00.000                             : en:00:00:00.000
    61. 00:10:09.734                             : en:00:10:09.734
    62. 00:18:31.402                             : en:00:18:31.402
    63. 00:29:09.414                             : en:00:29:09.414
    64. 00:41:02.669                             : en:00:41:02.669
    65. 00:46:14.647                             : en:00:46:14.647
    66. 00:56:06.363                             : en:00:56:06.363
    67. 01:07:11.152                             : en:01:07:11.152
    68. 01:14:13.240                             : en:01:14:13.240
    69. 01:24:54.464                             : en:01:24:54.464
    复制代码

    阿尔卑斯 Alps.2011.720p.BluRay.x264-USURY 4.37GB-2.png

    游客,如果您要查看本帖隐藏内容请回复



    大中午的快困死蓝光君了
    回复

    使用道具 举报

    该用户从未签到

    0

    主题

    609

    帖子

    321

    积分

    中级会员

    Rank: 3Rank: 3

    积分
    321
    发表于 2020-3-22 22:18:17 | 显示全部楼层
    回复 支持 反对

    使用道具 举报

    该用户从未签到

    0

    主题

    588

    帖子

    188

    积分

    注册会员

    Rank: 2

    积分
    188
    发表于 2020-3-22 22:18:59 | 显示全部楼层
    回复 支持 反对

    使用道具 举报

    该用户从未签到

    0

    主题

    1万

    帖子

    1万

    积分

    论坛元老

    Rank: 8Rank: 8

    积分
    18929
    发表于 2020-3-23 00:23:32 | 显示全部楼层
    回复 支持 反对

    使用道具 举报

    该用户从未签到

    0

    主题

    1万

    帖子

    1万

    积分

    论坛元老

    Rank: 8Rank: 8

    积分
    18929
    发表于 2020-3-23 02:59:31 | 显示全部楼层
    回复 支持 反对

    使用道具 举报

    该用户从未签到

    0

    主题

    1万

    帖子

    1万

    积分

    论坛元老

    Rank: 8Rank: 8

    积分
    18929
    发表于 2020-3-23 17:19:12 | 显示全部楼层
    回复 支持 反对

    使用道具 举报

    该用户从未签到

    0

    主题

    1570

    帖子

    1550

    积分

    金牌会员

    Rank: 6Rank: 6

    积分
    1550
    发表于 2020-3-24 06:32:13 | 显示全部楼层
    回复 支持 反对

    使用道具 举报

    该用户从未签到

    0

    主题

    1万

    帖子

    1万

    积分

    论坛元老

    Rank: 8Rank: 8

    积分
    18929
    发表于 2020-3-24 16:49:58 | 显示全部楼层
    回复 支持 反对

    使用道具 举报

    该用户从未签到

    0

    主题

    1万

    帖子

    1万

    积分

    论坛元老

    Rank: 8Rank: 8

    积分
    11457
    发表于 2020-3-24 20:51:25 | 显示全部楼层
    感谢楼主的无私分享!要想蓝光高清电影网好 就靠你我他
    回复 支持 反对

    使用道具 举报

    该用户从未签到

    0

    主题

    597

    帖子

    16

    积分

    新手上路

    Rank: 1

    积分
    16
    发表于 2020-3-27 15:06:39 | 显示全部楼层
    回复 支持 反对

    使用道具 举报

    懒得打字嘛,点击右侧快捷回复 【右侧内容,后台自定义】
    您需要登录后才可以回帖 登录 | 立即注册

    本版积分规则

    郑重声明,本站所有作品片源来自互联网公开渠道,均为网友上传交流学习,影视版权均归原电影公司所有,如有侵犯版权,请与 2322694662@qq.com 联系,我们将立即删除。

    小黑屋|手机版|Archiver|百度统计|投诉|蓝光电影下载

    GMT+8, 2020-4-6 06:33 , Processed in 0.040673 second(s), 19 queries , Gzip On, MemCached On.

    Powered by Discuz! X3.4

    © 2001-2013 Comsenz Inc.

    快速回复 返回顶部 返回列表