快捷导航
查看: 59|回复: 12

[恐怖] 送葬者 The.Undertaker.1988.1080p.BluRay.x264-CREEPSHOW 8.73GB

[复制链接]
  • TA的每日心情
    开心
    2020-2-15 21:32
  • 签到天数: 240 天

    [LV.8]以坛为家I

    1万

    主题

    1万

    帖子

    4万

    积分

    管理员

    蓝光君

    Rank: 9Rank: 9Rank: 9

    积分
    46696

    活跃会员热心会员推广达人突出贡献优秀版主荣誉管理论坛元老

    QQ
    发表于 2020-5-10 14:06:54 | 显示全部楼层 |阅读模式

    送葬者 The.Undertaker.1988.1080p.BluRay.x264-CREEPSHOW 8.73GB-1.png

    译  名 送葬者
    片  名 The Undertaker
    年  代 1988
    产  地 美国
    类  别 恐怖
    语  言 英语
    上映日期 1988
    IMDb评分  5.0/10 from 270 users
    IMDb链接  https://www.imdb.com/title/tt0249218
    豆瓣评分 0/10 from 0 users
    豆瓣链接 https://movie.douban.com/subject/5142963/
    导  演 Franco Steffanino
    编  剧 William James Kennedy

    标  签 记号 | 美国电影 | 恐怖 | BDISO | 1988

    简  介  

      暂无相关剧情介绍
    1. Video
    2. ID                                       : 1
    3. Format                                   : AVC
    4. Format/Info                              : Advanced Video Codec
    5. Format profile                           : High@L4
    6. Format settings                          : CABAC / 4 Ref Frames
    7. Format settings, CABAC                   : Yes
    8. Format settings, Reference frames        : 4 frames
    9. Codec ID                                 : V_MPEG4/ISO/AVC
    10. Duration                                 : 1 h 28 min
    11. Bit rate                                 : 13.8 Mb/s
    12. Width                                    : 1 920 pixels
    13. Height                                   : 1 080 pixels
    14. Display aspect ratio                     : 16:9
    15. Frame rate mode                          : Constant
    16. Frame rate                               : 23.976 (24000/1001) FPS
    17. Color space                              : YUV
    18. Chroma subsampling                       : 4:2:0
    19. Bit depth                                : 8 bits
    20. Scan type                                : Progressive
    21. Bits/(Pixel*Frame)                       : 0.278
    22. Stream size                              : 8.56 GiB (98%)
    23. Writing library                          : x264 core 157 r2969 d4099dd
    24. Encoding settings                        : cabac=1 / ref=4 / deblock=1:-2:-2 / analyse=0x3:0x133 / me=umh / subme=9 / psy=1 / psy_rd=1.00:0.00 / mixed_ref=1 / me_range=16 / chroma_me=1 / trellis=2 / 8x8dct=1 / cqm=0 / deadzone=21,11 / fast_pskip=0 / chroma_qp_offset=-2 / threads=12 / lookahead_threads=1 / sliced_threads=0 / nr=0 / decimate=1 / interlaced=0 / bluray_compat=0 / constrained_intra=0 / bframes=3 / b_pyramid=2 / b_adapt=2 / b_bias=0 / direct=3 / weightb=1 / open_gop=0 / weightp=2 / keyint=240 / keyint_min=23 / scenecut=40 / intra_refresh=0 / rc_lookahead=50 / rc=2pass / mbtree=1 / bitrate=13806 / ratetol=1.0 / qcomp=0.60 / qpmin=0 / qpmax=69 / qpstep=4 / cplxblur=20.0 / qblur=0.5 / vbv_maxrate=62500 / vbv_bufsize=78125 / nal_hrd=none / filler=0 / ip_ratio=1.40 / aq=1:0.70
    25. Default                                  : Yes
    26. Forced                                   : No

    27. Audio
    28. ID                                       : 2
    29. Format                                   : FLAC
    30. Format/Info                              : Free Lossless Audio Codec
    31. Codec ID                                 : A_FLAC
    32. Duration                                 : 1 h 28 min
    33. Bit rate mode                            : Variable
    34. Bit rate                                 : 281 kb/s
    35. Channel(s)                               : 2 channels
    36. Channel layout                           : L R
    37. Sampling rate                            : 48.0 kHz
    38. Frame rate                               : 11.719 FPS (4096 SPF)
    39. Bit depth                                : 16 bits
    40. Compression mode                         : Lossless
    41. Stream size                              : 179 MiB (2%)
    42. Writing library                          : libFLAC 1.3.3 (UTC 2019-08-04)
    43. Language                                 : English
    44. Default                                  : Yes
    45. Forced                                   : No

    46. Text
    47. ID                                       : 3
    48. Format                                   : UTF-8
    49. Codec ID                                 : S_TEXT/UTF8
    50. Codec ID/Info                            : UTF-8 Plain Text
    51. Duration                                 : 1 h 25 min
    52. Bit rate                                 : 43 b/s
    53. Count of elements                        : 987
    54. Stream size                              : 27.2 KiB (0%)
    55. Language                                 : English
    56. Default                                  : No
    57. Forced                                   : No

    58. Menu
    59. 00:00:00.000                             : en:Chapter 01
    60. 00:06:41.026                             : en:Chapter 02
    61. 00:13:34.063                             : en:Chapter 03
    62. 00:20:47.037                             : en:Chapter 04
    63. 00:25:21.437                             : en:Chapter 05
    64. 00:33:30.967                             : en:Chapter 06
    65. 00:42:06.024                             : en:Chapter 07
    66. 00:50:15.971                             : en:Chapter 08
    67. 00:57:29.738                             : en:Chapter 09
    68. 01:02:28.328                             : en:Chapter 10
    69. 01:10:36.691                             : en:Chapter 11
    70. 01:18:31.498                             : en:Chapter 12
    复制代码

    送葬者 The.Undertaker.1988.1080p.BluRay.x264-CREEPSHOW 8.73GB-2.png

    游客,如果您要查看本帖隐藏内容请回复



    大中午的快困死蓝光君了
    回复

    使用道具 举报

    该用户从未签到

    0

    主题

    2614

    帖子

    2490

    积分

    金牌会员

    Rank: 6Rank: 6

    积分
    2490
    发表于 2020-5-10 14:07:08 | 显示全部楼层
    这个帖子不回对不起自己!我想我是一天也不能离开蓝光电影网
    回复 支持 反对

    使用道具 举报

    该用户从未签到

    0

    主题

    1万

    帖子

    1万

    积分

    论坛元老

    Rank: 8Rank: 8

    积分
    12926
    发表于 2020-5-10 14:07:26 | 显示全部楼层

    是个好电影!必须要看的!多谢分享!
    回复 支持 反对

    使用道具 举报

    该用户从未签到

    0

    主题

    821

    帖子

    565

    积分

    高级会员

    Rank: 4

    积分
    565
    发表于 2020-5-12 06:49:22 | 显示全部楼层
    回复 支持 反对

    使用道具 举报

    该用户从未签到

    0

    主题

    503

    帖子

    516

    积分

    高级会员

    Rank: 4

    积分
    516
    发表于 2020-5-12 11:21:08 | 显示全部楼层
    回复 支持 反对

    使用道具 举报

    该用户从未签到

    0

    主题

    1万

    帖子

    1万

    积分

    论坛元老

    Rank: 8Rank: 8

    积分
    12926
    发表于 2020-5-14 11:23:03 | 显示全部楼层

    非常精彩的电影,下来收藏,感谢楼主
    回复 支持 反对

    使用道具 举报

    该用户从未签到

    0

    主题

    1万

    帖子

    1万

    积分

    论坛元老

    Rank: 8Rank: 8

    积分
    12926
    发表于 2020-5-15 05:42:59 | 显示全部楼层
    回复 支持 反对

    使用道具 举报

    该用户从未签到

    0

    主题

    140

    帖子

    112

    积分

    注册会员

    Rank: 2

    积分
    112
    发表于 2020-5-21 03:18:40 | 显示全部楼层
    回复 支持 反对

    使用道具 举报

    该用户从未签到

    0

    主题

    140

    帖子

    112

    积分

    注册会员

    Rank: 2

    积分
    112
    发表于 2020-6-1 09:01:14 | 显示全部楼层
    回复 支持 反对

    使用道具 举报

    该用户从未签到

    0

    主题

    307

    帖子

    323

    积分

    中级会员

    Rank: 3Rank: 3

    积分
    323
    发表于 2020-6-3 06:11:20 | 显示全部楼层
    回复 支持 反对

    使用道具 举报

    懒得打字嘛,点击右侧快捷回复 【右侧内容,后台自定义】
    您需要登录后才可以回帖 登录 | 立即注册

    本版积分规则

    郑重声明,本站所有作品片源来自互联网公开渠道,均为网友上传交流学习,影视版权均归原电影公司所有,如有侵犯版权,请与 2322694662@qq.com 联系,我们将立即删除。

    小黑屋|手机版|Archiver|百度统计|投诉|蓝光电影下载

    GMT+8, 2020-7-13 11:45 , Processed in 0.043606 second(s), 21 queries , Gzip On, MemCached On.

    Powered by Discuz! X3.4

    © 2001-2013 Comsenz Inc.

    快速回复 返回顶部 返回列表