快捷导航
查看: 71|回复: 11

[犯罪] 地下世界/下层社会 Underworld.1927.1080p.BluRay.x264-USURY 7.95GB

[复制链接]
  • TA的每日心情
    开心
    2020-2-15 21:32
  • 签到天数: 240 天

    [LV.8]以坛为家I

    1万

    主题

    1万

    帖子

    4万

    积分

    管理员

    蓝光君

    Rank: 9Rank: 9Rank: 9

    积分
    46696

    活跃会员热心会员推广达人突出贡献优秀版主荣誉管理论坛元老

    QQ
    发表于 2020-5-10 14:58:41 | 显示全部楼层 |阅读模式

    地下世界/下层社会 Underworld.1927.1080p.BluRay.x264-USURY 7.95GB-1.png

    译  名 地下世界 / 下层社会 / 帑暗之街 / 黑社会
    片  名 Underworld
    年  代 1927
    产  地 美国
    类  别 剧情 / 犯罪
    语  言 无对白
    上映日期 1927-08-20
    IMDb评分  7.6/10 from 2348 users
    IMDb链接  https://www.imdb.com/title/tt0018526
    豆瓣评分 7.9/10 from 341 users
    豆瓣链接 https://movie.douban.com/subject/1303347/
    片  长 80 分钟
    导  演 Josef von Sternberg
    编  剧 Charles Furthman / Robert N. Lee
    主  演 George Bancroft
           Evelyn Brent
           Clive Brook
           Fred Kohler
           Helen Lynch


    标  签 美国 | 默片 | 约瑟夫·冯·斯登堡 | 犯罪 | 1927 | 1920s | CC | 美国电影

    简  介  

      依据1922年的凶杀案改编,描写贩卖私酒的匪帮和警方角力的故事。影史第一次以盗匪当主角,运用背面打光和烟雾,颇具艺术风格,广受欢迎,也预示40年代黑色电影的来临。

    获奖情况  

      第1届奥斯卡金像奖(1929)
      最佳原创故事 本·赫克特
    1. Video
    2. ID                                       : 1
    3. Format                                   : AVC
    4. Format/Info                              : Advanced Video Codec
    5. Format profile                           : High@L4
    6. Format settings                          : CABAC / 4 Ref Frames
    7. Format settings, CABAC                   : Yes
    8. Format settings, Reference frames        : 4 frames
    9. Codec ID                                 : V_MPEG4/ISO/AVC
    10. Duration                                 : 1 h 21 min
    11. Bit rate                                 : 11.3 Mb/s
    12. Width                                    : 1 440 pixels
    13. Height                                   : 1 080 pixels
    14. Display aspect ratio                     : 4:3
    15. Frame rate mode                          : Constant
    16. Frame rate                               : 23.976 (24000/1001) FPS
    17. Color space                              : YUV
    18. Chroma subsampling                       : 4:2:0
    19. Bit depth                                : 8 bits
    20. Scan type                                : Progressive
    21. Bits/(Pixel*Frame)                       : 0.304
    22. Stream size                              : 6.45 GiB (81%)
    23. Writing library                          : x264 core 157 r2969 d4099dd
    24. Encoding settings                        : cabac=1 / ref=4 / deblock=1:-3:-3 / analyse=0x3:0x133 / me=umh / subme=9 / psy=1 / psy_rd=1.00:0.00 / mixed_ref=1 / me_range=16 / chroma_me=1 / trellis=2 / 8x8dct=1 / cqm=0 / deadzone=21,11 / fast_pskip=0 / chroma_qp_offset=-2 / threads=18 / lookahead_threads=1 / sliced_threads=0 / nr=0 / decimate=1 / interlaced=0 / bluray_compat=0 / constrained_intra=0 / bframes=3 / b_pyramid=2 / b_adapt=1 / b_bias=0 / direct=3 / weightb=1 / open_gop=0 / weightp=2 / keyint=240 / keyint_min=24 / scenecut=40 / intra_refresh=0 / rc_lookahead=50 / rc=2pass / mbtree=1 / bitrate=11328 / ratetol=1.0 / qcomp=0.60 / qpmin=0 / qpmax=69 / qpstep=4 / cplxblur=20.0 / qblur=0.5 / ip_ratio=1.40 / aq=1:1.00
    25. Language                                 : English
    26. Default                                  : Yes
    27. Forced                                   : No

    28. Audio #1
    29. ID                                       : 2
    30. Format                                   : FLAC
    31. Format/Info                              : Free Lossless Audio Codec
    32. Codec ID                                 : A_FLAC
    33. Duration                                 : 1 h 21 min
    34. Bit rate mode                            : Variable
    35. Bit rate                                 : 1 312 kb/s
    36. Channel(s)                               : 2 channels
    37. Channel layout                           : L R
    38. Sampling rate                            : 48.0 kHz
    39. Frame rate                               : 11.719 FPS (4096 SPF)
    40. Bit depth                                : 24 bits
    41. Compression mode                         : Lossless
    42. Stream size                              : 765 MiB (9%)
    43. Writing library                          : libFLAC 1.2.1 (UTC 2007-09-17)
    44. Default                                  : Yes
    45. Forced                                   : No

    46. Audio #2
    47. ID                                       : 3
    48. Format                                   : FLAC
    49. Format/Info                              : Free Lossless Audio Codec
    50. Codec ID                                 : A_FLAC
    51. Duration                                 : 1 h 21 min
    52. Bit rate mode                            : Variable
    53. Bit rate                                 : 1 315 kb/s
    54. Channel(s)                               : 2 channels
    55. Channel layout                           : L R
    56. Sampling rate                            : 48.0 kHz
    57. Frame rate                               : 11.719 FPS (4096 SPF)
    58. Bit depth                                : 24 bits
    59. Compression mode                         : Lossless
    60. Stream size                              : 767 MiB (9%)
    61. Writing library                          : libFLAC 1.2.1 (UTC 2007-09-17)
    62. Default                                  : No
    63. Forced                                   : No

    64. Menu
    65. 00:00:00.000                             : en:00:00:00.000
    66. 00:01:21.081                             : en:00:01:21.081
    67. 00:04:25.265                             : en:00:04:25.265
    68. 00:14:21.569                             : en:00:14:21.569
    69. 00:16:44.420                             : en:00:16:44.420
    70. 00:18:44.123                             : en:00:18:44.123
    71. 00:25:06.505                             : en:00:25:06.505
    72. 00:26:52.694                             : en:00:26:52.694
    73. 00:31:48.698                             : en:00:31:48.698
    74. 00:39:38.751                             : en:00:39:38.751
    75. 00:44:41.053                             : en:00:44:41.053
    76. 00:48:27.780                             : en:00:48:27.780
    77. 00:56:54.995                             : en:00:56:54.995
    78. 01:03:47.198                             : en:01:03:47.198
    79. 01:09:40.134                             : en:01:09:40.134
    80. 01:14:27.505                             : en:01:14:27.505
    复制代码

    地下世界/下层社会 Underworld.1927.1080p.BluRay.x264-USURY 7.95GB-2.png

    游客,如果您要查看本帖隐藏内容请回复



    大中午的快困死蓝光君了
    回复

    使用道具 举报

    该用户从未签到

    0

    主题

    821

    帖子

    565

    积分

    高级会员

    Rank: 4

    积分
    565
    发表于 2020-5-10 14:58:56 | 显示全部楼层
    这个帖子不回对不起自己!我想我是一天也不能离开蓝光电影网
    回复 支持 反对

    使用道具 举报

    该用户从未签到

    0

    主题

    1万

    帖子

    1万

    积分

    论坛元老

    Rank: 8Rank: 8

    积分
    12926
    发表于 2020-5-10 14:59:09 | 显示全部楼层
    回复 支持 反对

    使用道具 举报

    该用户从未签到

    0

    主题

    643

    帖子

    631

    积分

    高级会员

    Rank: 4

    积分
    631
    发表于 2020-5-12 07:36:06 | 显示全部楼层

    是个好电影!必须要看的!多谢分享!
    回复 支持 反对

    使用道具 举报

    该用户从未签到

    0

    主题

    818

    帖子

    810

    积分

    高级会员

    Rank: 4

    积分
    810
    发表于 2020-5-12 13:03:48 | 显示全部楼层
    楼主太厉害了!楼主,电影应该很好看我觉得蓝光电影下载真是个好地方!
    回复 支持 反对

    使用道具 举报

    该用户从未签到

    0

    主题

    1万

    帖子

    1万

    积分

    论坛元老

    Rank: 8Rank: 8

    积分
    11805
    发表于 2020-5-13 18:34:34 | 显示全部楼层

    非常精彩的电影,下来收藏,感谢楼主
    回复 支持 反对

    使用道具 举报

    该用户从未签到

    0

    主题

    2336

    帖子

    2321

    积分

    金牌会员

    Rank: 6Rank: 6

    积分
    2321
    发表于 2020-5-13 21:43:25 | 显示全部楼层
    回复 支持 反对

    使用道具 举报

    该用户从未签到

    0

    主题

    821

    帖子

    565

    积分

    高级会员

    Rank: 4

    积分
    565
    发表于 2020-5-14 00:33:48 | 显示全部楼层
    回复 支持 反对

    使用道具 举报

    该用户从未签到

    0

    主题

    821

    帖子

    565

    积分

    高级会员

    Rank: 4

    积分
    565
    发表于 2020-5-14 14:03:00 | 显示全部楼层
    感谢楼主的无私分享!要想蓝光高清电影网好 就靠你我他
    回复 支持 反对

    使用道具 举报

    该用户从未签到

    0

    主题

    1万

    帖子

    1万

    积分

    论坛元老

    Rank: 8Rank: 8

    积分
    18946
    发表于 2020-5-21 10:21:47 | 显示全部楼层
    回复 支持 反对

    使用道具 举报

    懒得打字嘛,点击右侧快捷回复 【右侧内容,后台自定义】
    您需要登录后才可以回帖 登录 | 立即注册

    本版积分规则

    郑重声明,本站所有作品片源来自互联网公开渠道,均为网友上传交流学习,影视版权均归原电影公司所有,如有侵犯版权,请与 2322694662@qq.com 联系,我们将立即删除。

    小黑屋|手机版|Archiver|百度统计|投诉|蓝光电影下载

    GMT+8, 2020-7-13 12:45 , Processed in 0.039782 second(s), 20 queries , Gzip On, MemCached On.

    Powered by Discuz! X3.4

    © 2001-2013 Comsenz Inc.

    快速回复 返回顶部 返回列表