快捷导航
查看: 4040|回复: 15

成就梦想 Make.Us.Dream.2018.1080p.BluRay.x264-CADAVER 7.66GB

[复制链接]
  • TA的每日心情
    开心
    昨天 23:39
  • 签到天数: 265 天

    [LV.8]以坛为家I

    1万

    主题

    713

    回帖

    20万

    积分

    管理员

    蓝光君

    Rank: 9Rank: 9Rank: 9

    积分
    207918

    活跃会员热心会员推广达人突出贡献优秀版主荣誉管理论坛元老

    QQ
    发表于 2020-5-10 22:44:44 | 显示全部楼层 |阅读模式



    成就梦想 Make.Us.Dream.2018.1080p.BluRay.x264-CADAVER 7.66GB-1.png

    译  名 成就梦想
    片  名 Make Us Dream
    年  代 2018
    产  地 英国
    类  别 纪录片
    语  言 英语
    上映日期 2018-10-15(英国)
    IMDb评分  8.1/10 from 1670 users
    IMDb链接  https://www.imdb.com/title/tt9206562
    豆瓣评分 8.5/10 from 429 users
    豆瓣链接 https://movie.douban.com/subject/30368463/
    片  长 104分钟
    导  演 Sam Blair
    主  演 史蒂文·杰拉德 Steven Gerrard


    标  签 纪录片 | 足球 | 英国 | 史蒂文·杰拉德 | 体育 | 利物浦足球 | 2018 | 传记

    简  介  

      亚马逊拿下纪录片[成就梦想](Make Us Dream,暂译)发行权,该片聚焦前利物浦足球队队长、英格兰国脚史蒂文·杰拉德。导演萨姆·布莱尔([保持静默]),詹姆斯·盖伊-里斯([艾米])担任制片。杰拉德是利物浦足球俱乐部历史上任期最长、参赛场次最多的队长。影片将于本月15日英国上映,之后登陆亚马逊流媒体。
    1. Video
    2. ID                                       : 1
    3. Format                                   : AVC
    4. Format/Info                              : Advanced Video Codec
    5. Format profile                           : High@L4
    6. Format settings                          : CABAC / 4 Ref Frames
    7. Format settings, CABAC                   : Yes
    8. Format settings, Reference frames        : 4 frames
    9. Codec ID                                 : V_MPEG4/ISO/AVC
    10. Duration                                 : 1 h 44 min
    11. Bit rate                                 : 9 760 kb/s
    12. Width                                    : 1 920 pixels
    13. Height                                   : 960 pixels
    14. Display aspect ratio                     : 2.000
    15. Frame rate mode                          : Constant
    16. Frame rate                               : 23.976 (24000/1001) FPS
    17. Color space                              : YUV
    18. Chroma subsampling                       : 4:2:0
    19. Bit depth                                : 8 bits
    20. Scan type                                : Progressive
    21. Bits/(Pixel*Frame)                       : 0.221
    22. Stream size                              : 7.09 GiB (93%)
    23. Writing library                          : x264 core 159 r2991 1771b55
    24. Encoding settings                        : cabac=1 / ref=4 / deblock=1:-3:-3 / analyse=0x3:0x133 / me=umh / subme=9 / psy=1 / psy_rd=1.00:0.00 / mixed_ref=1 / me_range=24 / chroma_me=1 / trellis=1 / 8x8dct=1 / cqm=0 / deadzone=21,11 / fast_pskip=0 / chroma_qp_offset=-2 / threads=24 / lookahead_threads=4 / sliced_threads=0 / nr=0 / decimate=1 / interlaced=0 / bluray_compat=0 / constrained_intra=0 / bframes=8 / b_pyramid=2 / b_adapt=2 / b_bias=0 / direct=3 / weightb=1 / open_gop=0 / weightp=2 / keyint=250 / keyint_min=23 / scenecut=40 / intra_refresh=0 / rc_lookahead=60 / rc=2pass / mbtree=1 / bitrate=9760 / ratetol=1.0 / qcomp=0.60 / qpmin=0 / qpmax=69 / qpstep=4 / cplxblur=20.0 / qblur=0.5 / vbv_maxrate=62500 / vbv_bufsize=78125 / nal_hrd=none / filler=0 / ip_ratio=1.40 / aq=1:1.00
    25. Default                                  : Yes
    26. Forced                                   : No

    27. Audio
    28. ID                                       : 2
    29. Format                                   : DTS
    30. Format/Info                              : Digital Theater Systems
    31. Codec ID                                 : A_DTS
    32. Duration                                 : 1 h 44 min
    33. Bit rate mode                            : Constant
    34. Bit rate                                 : 768 kb/s
    35. Channel(s)                               : 6 channels
    36. Channel layout                           : C L R Ls Rs LFE
    37. Sampling rate                            : 48.0 kHz
    38. Frame rate                               : 93.750 FPS (512 SPF)
    39. Bit depth                                : 24 bits
    40. Compression mode                         : Lossy
    41. Stream size                              : 572 MiB (7%)
    42. Language                                 : English
    43. Default                                  : Yes
    44. Forced                                   : No

    45. Menu
    46. 00:00:00.000                             : en:Chapter 01
    47. 00:06:11.913                             : en:Chapter 02
    48. 00:14:03.259                             : en:Chapter 03
    49. 00:22:07.785                             : en:Chapter 04
    50. 00:30:01.383                             : en:Chapter 05
    51. 00:37:03.888                             : en:Chapter 06
    52. 00:46:18.859                             : en:Chapter 07
    53. 00:54:24.386                             : en:Chapter 08
    54. 01:04:08.845                             : en:Chapter 09
    55. 01:15:33.529                             : en:Chapter 10
    56. 01:23:48.732                             : en:Chapter 11
    57. 01:33:44.786                             : en:Chapter 12
    复制代码

    成就梦想 Make.Us.Dream.2018.1080p.BluRay.x264-CADAVER 7.66GB-2.png

    游客,如果您要查看本帖隐藏内容请回复



    大咖网站我来了!
    回复

    使用道具 举报

  • TA的每日心情
    奋斗
    2022-5-17 04:04
  • 签到天数: 1 天

    [LV.1]初来乍到

    0

    主题

    6720

    回帖

    6884

    积分

    论坛元老

    Rank: 8Rank: 8

    积分
    6884
    发表于 2020-5-10 22:44:59 | 显示全部楼层

    不错收了谢谢分享

    点评

    海!外直播 bitly.net/xaaax 禁闻视频 bitly.net/55pppp 把地表的资源用光,把地下的矿藏挖空,把子女财产转移到外国去,现在又把全球的垃圾运进来……他们和中国人民有血海深仇吗?到底是谁亡我之心不死?  发表于 6 天前
    回复 支持 反对

    使用道具 举报

  • TA的每日心情
    慵懒
    2022-9-15 21:40
  • 签到天数: 1 天

    [LV.1]初来乍到

    0

    主题

    2万

    回帖

    2万

    积分

    论坛元老

    Rank: 8Rank: 8

    积分
    29203
    发表于 2020-5-11 07:54:37 | 显示全部楼层
    回复 支持 反对

    使用道具 举报

    该用户从未签到

    0

    主题

    2294

    回帖

    2327

    积分

    金牌会员

    Rank: 6Rank: 6

    积分
    2327
    发表于 2020-5-11 17:08:56 | 显示全部楼层
    回复 支持 反对

    使用道具 举报

  • TA的每日心情
    奋斗
    2022-5-17 04:04
  • 签到天数: 1 天

    [LV.1]初来乍到

    0

    主题

    6720

    回帖

    6884

    积分

    论坛元老

    Rank: 8Rank: 8

    积分
    6884
    发表于 2020-5-12 16:18:43 | 显示全部楼层
    楼主太厉害了!楼主,电影应该很好看我觉得蓝光电影下载真是个好地方!
    回复 支持 反对

    使用道具 举报

  • TA的每日心情
    开心
    2016-6-1 14:06
  • 签到天数: 1 天

    [LV.1]初来乍到

    0

    主题

    1539

    回帖

    1591

    积分

    金牌会员

    Rank: 6Rank: 6

    积分
    1591
    发表于 2020-5-21 10:31:52 | 显示全部楼层
    回复 支持 反对

    使用道具 举报

  • TA的每日心情
    奋斗
    2023-7-9 14:14
  • 签到天数: 2 天

    [LV.1]初来乍到

    0

    主题

    1万

    回帖

    1万

    积分

    论坛元老

    Rank: 8Rank: 8

    积分
    11640
    发表于 2020-5-26 22:32:37 | 显示全部楼层

    是个好电影!必须要看的!多谢分享!
    回复 支持 反对

    使用道具 举报

  • TA的每日心情
    无聊
    2021-8-20 13:22
  • 签到天数: 1 天

    [LV.1]初来乍到

    1

    主题

    3

    回帖

    16

    积分

    新手上路

    Rank: 1

    积分
    16
    发表于 2021-8-20 13:47:55 | 显示全部楼层

    楼主太厉害了!楼主,I*老*虎*U!我觉得蓝光电影网真是个好地方!
    回复 支持 反对

    使用道具 举报

  • TA的每日心情
    无聊
    2021-12-3 18:19
  • 签到天数: 20 天

    [LV.4]偶尔看看III

    1

    主题

    632

    回帖

    891

    积分

    高级会员

    Rank: 4

    积分
    891
    发表于 2021-12-1 08:56:04 | 显示全部楼层

    论坛不能没有像楼主这样的人才啊!我会一直支持蓝光电影网
    回复 支持 反对

    使用道具 举报

  • TA的每日心情
    慵懒
    2021-12-9 16:28
  • 签到天数: 3 天

    [LV.2]偶尔看看I

    1

    主题

    33

    回帖

    84

    积分

    注册会员

    Rank: 2

    积分
    84
    发表于 2021-12-7 11:13:26 | 显示全部楼层
    回复 支持 反对

    使用道具 举报

    懒得打字嘛,点击右侧快捷回复 【右侧内容,后台自定义】
    您需要登录后才可以回帖 登录 | 立即注册

    本版积分规则

    郑重声明,本站所有作品片源来自互联网公开渠道,均为网友上传交流学习,影视版权均归原电影公司所有,如有侵犯版权,请与 2322694662@qq.com 联系,我们将立即删除。

    小黑屋|手机版|Archiver|投诉|51la|蓝光电影下载

    返回顶部
    x

    客服微信扫码添加咨询

    GMT+8, 2024-6-16 04:05 , Processed in 0.144492 second(s), 41 queries , Gzip On.

    Powered by Discuz! X3.4

    © 2001-2013 Comsenz Inc.

    快速回复 返回顶部 返回列表