快捷导航
查看: 85|回复: 10

[动作] 黑点/黑色基地 Black.Site.2018.1080p.BluRay.x264-GETiT 6.56GB

[复制链接]
  • TA的每日心情
    开心
    2020-2-15 21:32
  • 签到天数: 240 天

    [LV.8]以坛为家I

    1万

    主题

    1万

    帖子

    4万

    积分

    管理员

    蓝光君

    Rank: 9Rank: 9Rank: 9

    积分
    46696

    活跃会员热心会员推广达人突出贡献优秀版主荣誉管理论坛元老

    QQ
    发表于 2020-5-13 23:06:42 | 显示全部楼层 |阅读模式



    黑点/黑色基地 Black.Site.2018.1080p.BluRay.x264-GETiT 6.56GB-1.png

    译  名 黑点 / 黑色基地
    片  名 Black Site
    年  代 2018
    产  地 美国
    类  别 动作 / 恐怖
    语  言 英语
    IMDb评分  3.9/10 from 332 users
    IMDb链接  https://www.imdb.com/title/tt6964562
    豆瓣评分 0/10 from 0 users
    豆瓣链接 https://movie.douban.com/subject/30183647/
    导  演 Tom Paton
    编  剧 Tom Paton
    主  演 Jessica-Jane Stafford
           劳伦·阿什利·卡特 Lauren Ashley Carter
           Sophia Del Pizzo


    标  签 美国

    简  介  

      80's inspired John Carpenteresque Action. A young woman is forced to push past her worst fears and battle to deport an ancient entity back to where it came from. Set inside an underground military base known as The Artemis Black Site, the movie mixes an Escape From New York style survival story with Lovecraftian elements and large scale mythology building.
    1. Video
    2. ID                                       : 1
    3. Format                                   : AVC
    4. Format/Info                              : Advanced Video Codec
    5. Format profile                           : High@L4
    6. Format settings                          : CABAC / 5 Ref Frames
    7. Format settings, CABAC                   : Yes
    8. Format settings, Reference frames        : 5 frames
    9. Codec ID                                 : V_MPEG4/ISO/AVC
    10. Duration                                 : 1 h 27 min
    11. Bit rate                                 : 9 944 kb/s
    12. Width                                    : 1 920 pixels
    13. Height                                   : 816 pixels
    14. Display aspect ratio                     : 2.35:1
    15. Frame rate mode                          : Constant
    16. Frame rate                               : 23.976 (24000/1001) FPS
    17. Color space                              : YUV
    18. Chroma subsampling                       : 4:2:0
    19. Bit depth                                : 8 bits
    20. Scan type                                : Progressive
    21. Bits/(Pixel*Frame)                       : 0.265
    22. Stream size                              : 5.96 GiB (91%)
    23. Writing library                          : x264 core 158 r2988 7817004
    24. Encoding settings                        : cabac=1 / ref=5 / deblock=1:-2:-2 / analyse=0x3:0x113 / me=umh / subme=8 / psy=1 / psy_rd=1.00:0.00 / mixed_ref=1 / me_range=16 / chroma_me=1 / trellis=2 / 8x8dct=1 / cqm=0 / deadzone=21,11 / fast_pskip=0 / chroma_qp_offset=-2 / threads=25 / lookahead_threads=4 / sliced_threads=0 / nr=0 / decimate=1 / interlaced=0 / bluray_compat=0 / constrained_intra=0 / bframes=3 / b_pyramid=2 / b_adapt=2 / b_bias=0 / direct=3 / weightb=1 / open_gop=0 / weightp=2 / keyint=240 / keyint_min=24 / scenecut=40 / intra_refresh=0 / rc_lookahead=50 / rc=2pass / mbtree=1 / bitrate=9944 / ratetol=1.0 / qcomp=0.60 / qpmin=0 / qpmax=69 / qpstep=4 / cplxblur=20.0 / qblur=0.5 / ip_ratio=1.40 / aq=1:1.00
    25. Language                                 : English
    26. Default                                  : Yes
    27. Forced                                   : No

    28. Audio
    29. ID                                       : 2
    30. Format                                   : DTS
    31. Format/Info                              : Digital Theater Systems
    32. Codec ID                                 : A_DTS
    33. Duration                                 : 1 h 27 min
    34. Bit rate mode                            : Constant
    35. Bit rate                                 : 768 kb/s
    36. Channel(s)                               : 6 channels
    37. Channel layout                           : C L R Ls Rs LFE
    38. Sampling rate                            : 48.0 kHz
    39. Frame rate                               : 93.750 FPS (512 SPF)
    40. Bit depth                                : 24 bits
    41. Compression mode                         : Lossy
    42. Stream size                              : 481 MiB (7%)
    43. Language                                 : English
    44. Default                                  : Yes
    45. Forced                                   : No

    46. Menu
    47. 00:00:00.000                             : en:00:00:00.000
    48. 00:04:30.812                             : en:00:04:30.812
    49. 00:13:41.529                             : en:00:13:41.529
    50. 00:19:09.315                             : en:00:19:09.315
    51. 00:24:46.777                             : en:00:24:46.777
    52. 00:30:54.436                             : en:00:30:54.436
    53. 00:35:54.194                             : en:00:35:54.194
    54. 00:43:50.086                             : en:00:43:50.086
    55. 00:55:43.131                             : en:00:55:43.131
    56. 01:05:31.678                             : en:01:05:31.678
    57. 01:14:56.242                             : en:01:14:56.242
    58. 01:22:08.340                             : en:01:22:08.340
    复制代码

    黑点/黑色基地 Black.Site.2018.1080p.BluRay.x264-GETiT 6.56GB-2.png


    游客,如果您要查看本帖隐藏内容请回复


    大中午的快困死蓝光君了
    回复

    使用道具 举报

    该用户从未签到

    0

    主题

    2646

    帖子

    2573

    积分

    金牌会员

    Rank: 6Rank: 6

    积分
    2573
    发表于 2020-5-13 23:06:56 | 显示全部楼层
    这个帖子不回对不起自己!我想我是一天也不能离开蓝光电影网
    回复 支持 反对

    使用道具 举报

    该用户从未签到

    0

    主题

    1万

    帖子

    1万

    积分

    论坛元老

    Rank: 8Rank: 8

    积分
    18946
    发表于 2020-5-14 08:02:06 | 显示全部楼层
    感谢楼主的无私分享!要想蓝光高清电影网好 就靠你我他
    回复 支持 反对

    使用道具 举报

    该用户从未签到

    0

    主题

    1万

    帖子

    1万

    积分

    论坛元老

    Rank: 8Rank: 8

    积分
    11805
    发表于 2020-5-15 13:29:16 | 显示全部楼层
    回复 支持 反对

    使用道具 举报

    该用户从未签到

    0

    主题

    1万

    帖子

    1万

    积分

    论坛元老

    Rank: 8Rank: 8

    积分
    12926
    发表于 2020-5-16 20:09:34 | 显示全部楼层
    回复 支持 反对

    使用道具 举报

    该用户从未签到

    0

    主题

    1万

    帖子

    1万

    积分

    论坛元老

    Rank: 8Rank: 8

    积分
    18946
    发表于 2020-5-16 20:29:51 | 显示全部楼层
    回复 支持 反对

    使用道具 举报

    该用户从未签到

    0

    主题

    1万

    帖子

    1万

    积分

    论坛元老

    Rank: 8Rank: 8

    积分
    12926
    发表于 2020-5-16 22:08:24 | 显示全部楼层
    回复 支持 反对

    使用道具 举报

    该用户从未签到

    0

    主题

    68

    帖子

    50

    积分

    注册会员

    Rank: 2

    积分
    50
    发表于 2020-5-30 21:05:14 | 显示全部楼层
    回复 支持 反对

    使用道具 举报

    该用户从未签到

    0

    主题

    1万

    帖子

    1万

    积分

    论坛元老

    Rank: 8Rank: 8

    积分
    11805
    发表于 2020-5-31 17:05:47 | 显示全部楼层

    非常精彩的电影,下来收藏,感谢楼主
    回复 支持 反对

    使用道具 举报

    该用户从未签到

    0

    主题

    38

    帖子

    35

    积分

    新手上路

    Rank: 1

    积分
    35
    发表于 2020-6-3 05:53:59 | 显示全部楼层
    回复 支持 反对

    使用道具 举报

    懒得打字嘛,点击右侧快捷回复 【右侧内容,后台自定义】
    您需要登录后才可以回帖 登录 | 立即注册

    本版积分规则

    郑重声明,本站所有作品片源来自互联网公开渠道,均为网友上传交流学习,影视版权均归原电影公司所有,如有侵犯版权,请与 2322694662@qq.com 联系,我们将立即删除。

    小黑屋|手机版|Archiver|百度统计|投诉|蓝光电影下载

    GMT+8, 2020-7-13 13:44 , Processed in 0.042259 second(s), 20 queries , Gzip On, MemCached On.

    Powered by Discuz! X3.4

    © 2001-2013 Comsenz Inc.

    快速回复 返回顶部 返回列表