快捷导航
查看: 88|回复: 15

[惊悚] 学园孤岛 真人版 School-live.2019.JAPANESE.1080p.BluRay.x264-iKiW 8.50GB

[复制链接]
  • TA的每日心情
    开心
    2020-2-15 21:32
  • 签到天数: 240 天

    [LV.8]以坛为家I

    1万

    主题

    1万

    帖子

    4万

    积分

    管理员

    蓝光君

    Rank: 9Rank: 9Rank: 9

    积分
    46696

    活跃会员热心会员推广达人突出贡献优秀版主荣誉管理论坛元老

    QQ
    发表于 2020-5-16 12:57:40 | 显示全部楼层 |阅读模式




    学园孤岛 真人版 School-live.2019.JAPANESE.1080p.BluRay.x264-iKiW 8.50GB-1.png

    译  名 学园孤岛 真人版 / SCHOOL-LIVE! / 学园孤岛
    片  名 がっこうぐらし!
    年  代 2019
    产  地 日本
    类  别 惊悚 / 冒险
    语  言 日语
    上映日期 2019-01-25(日本)
    IMDb评分  5.8/10 from 52 users
    IMDb链接  https://www.imdb.com/title/tt9038304
    豆瓣评分 4.5/10 from 716 users
    豆瓣链接 https://movie.douban.com/subject/27205121/
    片  长 101分钟
    导  演 柴田一成 Issei Shibata
    编  剧 柴田一成 Issei Shibata
    主  演 阿部菜菜实 Nanami Abe
           长月翠 Midori Nagatsuki
           间岛和奏
           清原梨央
           小野乃乃香 Nonoka Ono
           金子大地 Daichi Kaneko


    标  签 丧尸 | 日本 | 校园 | 恐怖 | 日本电影 | 僵尸 | 电影 | 惊悚

    简  介  

      由海法纪光原作、千叶サドル作画的漫画《学园孤岛》宣布了真人电影化的决定。
    1. Video
    2. ID                                       : 1
    3. Format                                   : AVC
    4. Format/Info                              : Advanced Video Codec
    5. Format profile                           : High@L4
    6. Format settings                          : CABAC / 4 Ref Frames
    7. Format settings, CABAC                   : Yes
    8. Format settings, Reference frames        : 4 frames
    9. Codec ID                                 : V_MPEG4/ISO/AVC
    10. Duration                                 : 1 h 41 min
    11. Bit rate                                 : 11.3 Mb/s
    12. Width                                    : 1 920 pixels
    13. Height                                   : 1 038 pixels
    14. Display aspect ratio                     : 1.85:1
    15. Frame rate mode                          : Constant
    16. Frame rate                               : 23.976 (24000/1001) FPS
    17. Color space                              : YUV
    18. Chroma subsampling                       : 4:2:0
    19. Bit depth                                : 8 bits
    20. Scan type                                : Progressive
    21. Bits/(Pixel*Frame)                       : 0.237
    22. Stream size                              : 8.03 GiB (95%)
    23. Writing library                          : x264 core 129 r2245+704+36 8e61944 tMod+MixAQ [High@L4:2:0 X86_64]
    24. Encoding settings                        : cabac=1 / ref=4 / deblock=1:-3:-3 / analyse=0x3:0x133 / me=umh / subme=11 / psy=1 / fade_compensate=0.00 / psy_rd=1.05:0.10 / mixed_ref=1 / me_range=64 / chroma_me=1 / trellis=2 / 8x8dct=1 / cqm=0 / deadzone=21,11 / fast_pskip=0 / chroma_qp_offset=-3 / threads=18 / lookahead_threads=3 / sliced_threads=0 / nr=0 / decimate=0 / interlaced=0 / bluray_compat=0 / constrained_intra=0 / fgo=0 / bframes=10 / b_pyramid=2 / b_adapt=2 / b_bias=0 / direct=3 / weightb=1 / open_gop=0 / weightp=2 / keyint=250 / keyint_min=23 / scenecut=40 / intra_refresh=0 / rc=2pass / mbtree=0 / bitrate=11340 / ratetol=1.0 / qcomp=0.70 / qpmin=0 / qpmax=69 / qpstep=4 / cplxblur=20.0 / qblur=0.5 / ip_ratio=1.40 / pb_ratio=1.30 / aq=1 / aq-strength=0.90 / aq-sensitivity=10.00 / aq-ifactor=1.00 / aq-pfactor=1.00 / aq-bfactor=1.00 / aq2=0
    25. Language                                 : Japanese
    26. Default                                  : Yes
    27. Forced                                   : No

    28. Audio
    29. ID                                       : 2
    30. Format                                   : AC-3
    31. Format/Info                              : Audio Coding 3
    32. Commercial name                          : Dolby Digital
    33. Codec ID                                 : A_AC3
    34. Duration                                 : 1 h 41 min
    35. Bit rate mode                            : Constant
    36. Bit rate                                 : 640 kb/s
    37. Channel(s)                               : 6 channels
    38. Channel layout                           : L R C LFE Ls Rs
    39. Sampling rate                            : 48.0 kHz
    40. Frame rate                               : 31.250 FPS (1536 SPF)
    41. Bit depth                                : 16 bits
    42. Compression mode                         : Lossy
    43. Stream size                              : 465 MiB (5%)
    44. Language                                 : Japanese
    45. Service kind                             : Complete Main
    46. Default                                  : Yes
    47. Forced                                   : No

    48. Text #1
    49. ID                                       : 3
    50. Format                                   : UTF-8
    51. Codec ID                                 : S_TEXT/UTF8
    52. Codec ID/Info                            : UTF-8 Plain Text
    53. Duration                                 : 1 h 36 min
    54. Bit rate                                 : 34 b/s
    55. Count of elements                        : 898
    56. Stream size                              : 24.3 KiB (0%)
    57. Language                                 : English
    58. Default                                  : Yes
    59. Forced                                   : No

    60. Text #2
    61. ID                                       : 4
    62. Format                                   : ASS
    63. Codec ID                                 : S_TEXT/ASS
    64. Codec ID/Info                            : Advanced Sub Station Alpha
    65. Duration                                 : 1 h 41 min
    66. Bit rate                                 : 65 b/s
    67. Count of elements                        : 1010
    68. Compression mode                         : Lossless
    69. Stream size                              : 48.3 KiB (0%)
    70. Language                                 : Chinese
    71. Default                                  : No
    72. Forced                                   : No

    73. Menu
    74. 00:00:00.000                             : en:第 01 章
    75. 00:07:50.803                             : en:第 02 章
    76. 00:13:55.668                             : en:第 03 章
    77. 00:20:58.423                             : en:第 04 章
    78. 00:27:25.810                             : en:第 05 章
    79. 00:37:50.268                             : en:第 06 章
    80. 00:46:03.260                             : en:第 07 章
    81. 00:54:48.493                             : en:第 08 章
    82. 01:05:27.256                             : en:第 09 章
    83. 01:13:57.599                             : en:第 10 章
    84. 01:19:57.292                             : en:第 11 章
    85. 01:31:08.463                             : en:第 12 章
    86. 01:37:27.550                             : en:第 13 章
    87. 01:41:29.583                             : en:第 14 章
    复制代码

    学园孤岛 真人版 School-live.2019.JAPANESE.1080p.BluRay.x264-iKiW 8.50GB-2.png 学园孤岛 真人版 School-live.2019.JAPANESE.1080p.BluRay.x264-iKiW 8.50GB-3.png 学园孤岛 真人版 School-live.2019.JAPANESE.1080p.BluRay.x264-iKiW 8.50GB-4.png

    游客,如果您要查看本帖隐藏内容请回复



    大中午的快困死蓝光君了
    回复

    使用道具 举报

    该用户从未签到

    0

    主题

    2049

    帖子

    1969

    积分

    金牌会员

    Rank: 6Rank: 6

    积分
    1969
    发表于 2020-5-16 12:58:14 | 显示全部楼层
    回复 支持 反对

    使用道具 举报

    该用户从未签到

    0

    主题

    1万

    帖子

    1万

    积分

    论坛元老

    Rank: 8Rank: 8

    积分
    11805
    发表于 2020-5-19 02:06:32 | 显示全部楼层
    这个帖子不回对不起自己!我想我是一天也不能离开蓝光电影网
    回复 支持 反对

    使用道具 举报

    该用户从未签到

    0

    主题

    1万

    帖子

    1万

    积分

    论坛元老

    Rank: 8Rank: 8

    积分
    12926
    发表于 2020-5-19 08:12:59 | 显示全部楼层

    是个好电影!必须要看的!多谢分享!
    回复 支持 反对

    使用道具 举报

    该用户从未签到

    0

    主题

    1万

    帖子

    1万

    积分

    论坛元老

    Rank: 8Rank: 8

    积分
    18946
    发表于 2020-5-19 11:39:58 | 显示全部楼层

    非常精彩的电影,下来收藏,感谢楼主
    回复 支持 反对

    使用道具 举报

    该用户从未签到

    0

    主题

    1万

    帖子

    1万

    积分

    论坛元老

    Rank: 8Rank: 8

    积分
    18946
    发表于 2020-5-20 05:41:25 | 显示全部楼层
    感谢楼主的无私分享!要想蓝光高清电影网好 就靠你我他
    回复 支持 反对

    使用道具 举报

    该用户从未签到

    0

    主题

    940

    帖子

    1068

    积分

    金牌会员

    Rank: 6Rank: 6

    积分
    1068
    发表于 2020-5-24 09:51:35 | 显示全部楼层
    回复 支持 反对

    使用道具 举报

    该用户从未签到

    0

    主题

    72

    帖子

    49

    积分

    新手上路

    Rank: 1

    积分
    49
    发表于 2020-5-25 14:43:38 | 显示全部楼层
    回复 支持 反对

    使用道具 举报

  • TA的每日心情

    2020-4-23 21:28
  • 签到天数: 1 天

    [LV.1]初来乍到

    0

    主题

    23

    帖子

    17

    积分

    新手上路

    Rank: 1

    积分
    17
    发表于 2020-5-29 11:11:09 | 显示全部楼层
    提示: 作者被禁止或删除 内容自动屏蔽
    回复 支持 反对

    使用道具 举报

    该用户从未签到

    0

    主题

    1万

    帖子

    1万

    积分

    论坛元老

    Rank: 8Rank: 8

    积分
    11805
    发表于 2020-6-3 07:52:50 | 显示全部楼层
    回复 支持 反对

    使用道具 举报

    懒得打字嘛,点击右侧快捷回复 【右侧内容,后台自定义】
    您需要登录后才可以回帖 登录 | 立即注册

    本版积分规则

    郑重声明,本站所有作品片源来自互联网公开渠道,均为网友上传交流学习,影视版权均归原电影公司所有,如有侵犯版权,请与 2322694662@qq.com 联系,我们将立即删除。

    小黑屋|手机版|Archiver|百度统计|投诉|蓝光电影下载

    GMT+8, 2020-7-13 13:43 , Processed in 0.039027 second(s), 21 queries , Gzip On, MemCached On.

    Powered by Discuz! X3.4

    © 2001-2013 Comsenz Inc.

    快速回复 返回顶部 返回列表