快捷导航
查看: 363|回复: 14

[喜剧] 小羊肖恩2:末日农场 A.Shaun.the.Sheep.Movie.Farmageddon.2019.720p.BluRay.X264-AMIABLE 4.3

[复制链接]
  • TA的每日心情
    开心
    2020-2-15 21:32
  • 签到天数: 240 天

    [LV.8]以坛为家I

    1万

    主题

    1万

    帖子

    6万

    积分

    管理员

    蓝光君

    Rank: 9Rank: 9Rank: 9

    积分
    67808

    活跃会员热心会员推广达人突出贡献优秀版主荣誉管理论坛元老

    QQ
    发表于 2020-6-7 16:17:21 | 显示全部楼层 |阅读模式



    小羊肖恩2:末日农场 A.Shaun.the.Sheep.Movie.Farmageddon.2019.720p.BluRay.X264-AMIABLE 4.3-1.png


    译  名 小羊肖恩2:末日农场 / Shaun the Sheep 2 / 小羊肖恩2 / 小羊肖恩2:大决战 / 小羊肖恩大电影2 / 小羊肖恩大电影:农场末日 / 小羊肖恩:农场末日 / 笑笑羊大电影2:外星人来了!(台)
    片  名 Shaun the Sheep Movie: Farmageddon
    年  代 2019
    产  地 英国 / 法国 / 美国
    类  别 喜剧 / 科幻 / 动画 / 冒险
    语  言 英语
    上映日期 2019-09-26(德国) / 2019-10-18(英国) / 2019-12-28(中国大陆)
    IMDb评分  7.0/10 from 2702 users
    IMDb链接  https://www.imdb.com/title/tt6193408
    豆瓣评分 8.0/10 from 5599 users
    豆瓣链接 https://movie.douban.com/subject/26628382/
    片  长 87分钟
    导  演 威尔·比彻 Will Becher / 理查德·费兰 Richard Phelan
    编  剧 Jon Brown / 马克·伯顿 Mark Burton / 尼克·帕克 Nick Park
    主  演 贾斯汀·弗莱彻 Justin Fletcher
           约翰·斯帕克斯 John Sparkes
           克里斯·莫雷尔 Chris Morrell
           安迪·尼曼 Andy Nyman
           戴维·霍尔特 David Holt
           凯特·哈伯 Kate Harbour
           阿玛莉亚·维塔莱 Amalia Vitale
           乔·萨格 Joe Sugg


    标  签 动画 | 小羊肖恩 | 英国 | 喜剧 | 粘土 | 2019 | 动画长片 | 电影

    简  介  

      宁静祥和的农场里,小羊肖恩和伙伴们大开脑洞,做着各种挑战生命极限的游戏。这可气坏了牧羊犬,他接二连三制定禁令,防止羊们兴风作浪。肖恩哪能随便被人摆布?他想出鬼点子,通过电话订购了披萨,谁知却引来了一个始料未及的不速之客。来者是一个名叫噜啦的外星宝宝。虽然语言不通,但通过肢体语言,肖恩终于弄清噜啦想要找到飞船回到自己的家乡。经过一番缜密的策划,肖恩终于和这个新朋友踏上寻找飞船的征途。与此同时,不明飞行物的造访在小镇引起轰动,同时也惊动了一个专门追寻外星生物的政府机构。
      本来一波三折的寻找飞船之旅,如今又加入了气势汹汹的对手,肖恩他们将面临前所未有的考验……

    获奖情况  

      第73届英国电影学院奖(2020)
      电影奖 最佳动画片(提名)

      第22届英国独立电影奖(2019)
      最佳新人导演(提名) 理查德·费兰 / 威尔·比彻
      最佳视效

      第24届金卫星奖(2020)
      电影部门 最佳动画片(提名)

      第40届伦敦影评人协会奖(2020)
      技术成就奖(提名) 理查德·费兰 / 威尔·比彻
    1. Video
    2. ID                                       : 1
    3. Format                                   : AVC
    4. Format/Info                              : Advanced Video Codec
    5. Format profile                           : High@L4
    6. Format settings                          : CABAC / 5 Ref Frames
    7. Format settings, CABAC                   : Yes
    8. Format settings, Reference frames        : 5 frames
    9. Codec ID                                 : V_MPEG4/ISO/AVC
    10. Duration                                 : 1 h 26 min
    11. Bit rate                                 : 5 698 kb/s
    12. Width                                    : 1 280 pixels
    13. Height                                   : 536 pixels
    14. Display aspect ratio                     : 2.40:1
    15. Frame rate mode                          : Constant
    16. Frame rate                               : 24.000 FPS
    17. Color space                              : YUV
    18. Chroma subsampling                       : 4:2:0
    19. Bit depth                                : 8 bits
    20. Scan type                                : Progressive
    21. Bits/(Pixel*Frame)                       : 0.346
    22. Stream size                              : 3.37 GiB (77%)
    23. Writing library                          : x264 core 159 r2991 1771b55
    24. Encoding settings                        : cabac=1 / ref=5 / deblock=1:-3:-3 / analyse=0x3:0x113 / me=umh / subme=8 / psy=1 / psy_rd=1.00:0.00 / mixed_ref=1 / me_range=24 / chroma_me=1 / trellis=2 / 8x8dct=1 / cqm=0 / deadzone=21,11 / fast_pskip=1 / chroma_qp_offset=-2 / threads=17 / lookahead_threads=2 / sliced_threads=0 / nr=0 / decimate=1 / interlaced=0 / bluray_compat=0 / constrained_intra=0 / bframes=3 / b_pyramid=2 / b_adapt=2 / b_bias=0 / direct=3 / weightb=1 / open_gop=0 / weightp=2 / keyint=250 / keyint_min=25 / scenecut=40 / intra_refresh=0 / rc_lookahead=50 / rc=2pass / mbtree=1 / bitrate=5698 / ratetol=1.0 / qcomp=0.60 / qpmin=0 / qpmax=69 / qpstep=4 / cplxblur=20.0 / qblur=0.5 / ip_ratio=1.40 / aq=3:0.80
    25. Default                                  : Yes
    26. Forced                                   : No
    27. Statistics Tags Issue                    : no_variable_data 1970-01-01 00:00:00 / no_variable_data 2010-02-22 21:41:29
    28. FromStats_BitRate                        : 5697428
    29. FromStats_Duration                       : 01:26:46.542000000
    30. FromStats_FrameCount                     : 124957
    31. FromStats_StreamSize                     : 3707987426

    32. Audio
    33. ID                                       : 2
    34. Format                                   : DTS
    35. Format/Info                              : Digital Theater Systems
    36. Codec ID                                 : A_DTS
    37. Duration                                 : 1 h 26 min
    38. Bit rate mode                            : Constant
    39. Bit rate                                 : 1 509 kb/s
    40. Channel(s)                               : 6 channels
    41. Channel layout                           : C L R Ls Rs LFE
    42. Sampling rate                            : 48.0 kHz
    43. Frame rate                               : 93.750 FPS (512 SPF)
    44. Bit depth                                : 24 bits
    45. Compression mode                         : Lossy
    46. Stream size                              : 937 MiB (21%)
    47. Language                                 : English
    48. Default                                  : Yes
    49. Forced                                   : No
    50. Statistics Tags Issue                    : no_variable_data 1970-01-01 00:00:00 / no_variable_data 2010-02-22 21:41:29
    51. FromStats_BitRate                        : 1508999
    52. FromStats_Duration                       : 01:26:47.339000000
    53. FromStats_FrameCount                     : 488188
    54. FromStats_StreamSize                     : 982234256

    55. Text #1
    56. ID                                       : 3
    57. Format                                   : UTF-8
    58. Codec ID                                 : S_TEXT/UTF8
    59. Codec ID/Info                            : UTF-8 Plain Text
    60. Language                                 : English
    61. Default                                  : No
    62. Forced                                   : No
    63. Statistics Tags Issue                    : no_variable_data 1970-01-01 00:00:00 / no_variable_data 2010-02-22 21:41:29
    64. FromStats_BitRate                        : 2
    65. FromStats_Duration                       : 01:26:14.000000000
    66. FromStats_FrameCount                     : 262
    67. FromStats_StreamSize                     : 1374

    68. Text #2
    69. ID                                       : 4
    70. Format                                   : UTF-8
    71. Codec ID                                 : S_TEXT/UTF8
    72. Codec ID/Info                            : UTF-8 Plain Text
    73. Title                                    : SDH
    74. Language                                 : English
    75. Default                                  : No
    76. Forced                                   : No
    77. Statistics Tags Issue                    : no_variable_data 1970-01-01 00:00:00 / no_variable_data 2010-02-22 21:41:29
    78. FromStats_BitRate                        : 28
    79. FromStats_Duration                       : 01:26:14.000000000
    80. FromStats_FrameCount                     : 1178
    81. FromStats_StreamSize                     : 18209

    82. Menu
    83. 00:00:00.000                             : en:Chapter 01
    84. 00:06:22.208                             : en:Chapter 02
    85. 00:10:49.375                             : en:Chapter 03
    86. 00:17:31.500                             : en:Chapter 04
    87. 00:22:46.125                             : en:Chapter 05
    88. 00:32:52.000                             : en:Chapter 06
    89. 00:38:18.833                             : en:Chapter 07
    90. 00:44:27.667                             : en:Chapter 08
    91. 00:54:43.917                             : en:Chapter 09
    92. 01:00:59.208                             : en:Chapter 10
    93. 01:05:47.750                             : en:Chapter 11
    94. 01:12:25.042                             : en:Chapter 12
    复制代码

    小羊肖恩2:末日农场 A.Shaun.the.Sheep.Movie.Farmageddon.2019.720p.BluRay.X264-AMIABLE 4.3-2.png


    游客,如果您要查看本帖隐藏内容请回复



    大中午的快困死蓝光君了
    回复

    使用道具 举报

    该用户从未签到

    0

    主题

    1万

    帖子

    1万

    积分

    论坛元老

    Rank: 8Rank: 8

    积分
    16484
    发表于 2020-6-7 16:17:33 | 显示全部楼层
    感谢楼主的无私分享!要想蓝光高清电影网好 就靠你我他
    回复 支持 反对

    使用道具 举报

    该用户从未签到

    0

    主题

    1万

    帖子

    1万

    积分

    论坛元老

    Rank: 8Rank: 8

    积分
    11423
    发表于 2020-6-7 16:27:12 | 显示全部楼层

    是个好电影!必须要看的!多谢分享!
    回复 支持 反对

    使用道具 举报

    该用户从未签到

    0

    主题

    653

    帖子

    550

    积分

    高级会员

    Rank: 4

    积分
    550
    发表于 2020-6-8 00:17:41 | 显示全部楼层
    回复 支持 反对

    使用道具 举报

    该用户从未签到

    0

    主题

    1万

    帖子

    1万

    积分

    论坛元老

    Rank: 8Rank: 8

    积分
    16484
    发表于 2020-6-8 00:20:34 | 显示全部楼层

    非常精彩的电影,下来收藏,感谢楼主
    回复 支持 反对

    使用道具 举报

    该用户从未签到

    0

    主题

    1万

    帖子

    1万

    积分

    论坛元老

    Rank: 8Rank: 8

    积分
    10325
    发表于 2020-6-9 05:34:52 | 显示全部楼层
    这个帖子不回对不起自己!我想我是一天也不能离开蓝光电影网
    回复 支持 反对

    使用道具 举报

    该用户从未签到

    0

    主题

    653

    帖子

    550

    积分

    高级会员

    Rank: 4

    积分
    550
    发表于 2020-6-10 05:45:07 | 显示全部楼层
    回复 支持 反对

    使用道具 举报

    该用户从未签到

    0

    主题

    828

    帖子

    -419

    积分

    限制会员

    积分
    -419
    发表于 2020-6-12 06:35:38 | 显示全部楼层
    回复 支持 反对

    使用道具 举报

    该用户从未签到

    0

    主题

    828

    帖子

    -419

    积分

    限制会员

    积分
    -419
    发表于 2020-6-18 16:39:42 | 显示全部楼层
    回复 支持 反对

    使用道具 举报

    该用户从未签到

    0

    主题

    631

    帖子

    590

    积分

    高级会员

    Rank: 4

    积分
    590
    发表于 2020-6-19 00:21:24 | 显示全部楼层
    回复 支持 反对

    使用道具 举报

    懒得打字嘛,点击右侧快捷回复 【右侧内容,后台自定义】
    您需要登录后才可以回帖 登录 | 立即注册

    本版积分规则

    郑重声明,本站所有作品片源来自互联网公开渠道,均为网友上传交流学习,影视版权均归原电影公司所有,如有侵犯版权,请与 2322694662@qq.com 联系,我们将立即删除。

    小黑屋|手机版|Archiver|百度统计|投诉|蓝光电影下载

    GMT+8, 2021-1-18 23:48 , Processed in 0.047599 second(s), 20 queries , Gzip On, MemCached On.

    Powered by Discuz! X3.4

    © 2001-2013 Comsenz Inc.

    快速回复 返回顶部 返回列表