快捷导航
查看: 1093|回复: 59

[科幻] 海市蜃楼 Mirage.2018.SPANISH.1080p.BluRay.x264-HANDJOB 8.39GB

  [复制链接]
  • TA的每日心情
    开心
    2020-2-15 21:32
  • 签到天数: 240 天

    [LV.8]以坛为家I

    1万

    主题

    1万

    帖子

    6万

    积分

    管理员

    蓝光君

    Rank: 9Rank: 9Rank: 9

    积分
    67834

    活跃会员热心会员推广达人突出贡献优秀版主荣誉管理论坛元老

    QQ
    发表于 2020-6-26 14:22:44 | 显示全部楼层 |阅读模式


    海市蜃楼 Mirage.2018.SPANISH.1080p.BluRay.x264-HANDJOB 8.39GB-1.png


    译  名 海市蜃楼 / During the Storm / Mirage / 暴风雨的幻象 / 风暴
    片  名 Durante la tormenta
    年  代 2018
    产  地 西班牙
    类  别 科幻 / 悬疑 / 惊悚
    语  言 西班牙语
    上映日期 2018-11-30(西班牙) / 2019-03-28(中国大陆)
    IMDb评分  7.4/10 from 26074 users
    IMDb链接  https://www.imdb.com/title/tt6908274
    豆瓣评分 7.8/10 from 246063 users
    豆瓣链接 https://movie.douban.com/subject/30164448/
    片  长 128分钟
    导  演 奥里奥尔·保罗 Oriol Paulo
    编  剧 奥里奥尔·保罗 Oriol Paulo / 拉拉·森迪姆 Lara Sendim
    主  演 阿德里亚娜·乌加特 Adriana Ugarte
           奇诺·达林 Chino Darín
           阿尔瓦罗·莫奇 álvaro Morte
           诺拉·纳瓦斯 Nora Navas
           哈维尔·古铁雷斯 Javier Gutiérrez
           米格尔·费南德斯 Miquel Fernández
           克拉拉·塞古拉 Clara Segura
           米玛·里埃拉 Mima Riera
           艾娜·克洛特 Aina Clotet
           阿尔伯特·佩雷斯 Albert Pérez
           弗兰塞斯克·奥雷利亚 Francesc Orella
           阿娜·瓦格纳 Ana Wagener
           西尔维亚·阿隆索 Silvia Alonso
           贝伦·鲁埃达 Belén Rueda


    标  签 悬疑 | 西班牙 | 平行宇宙 | 烧脑 | 时空 | 科幻 | 剧情 | 惊悚

    简  介  

      小男孩尼克(胡里奥·博希加斯 Julio Bohigas-Couto 饰)在一个风雨交加的夜晚目睹了邻居安吉尔(哈维尔·古铁雷斯 Javier Gutiérrez 饰)杀害自己妻子的场面。在和安吉尔的追逐之中,一辆车将尼克撞倒,导致了他的死亡。一晃眼多年过去,薇拉(阿德丽安娜·尤加特 Adriana Ugarte 饰)和丈夫大卫(阿尔瓦罗·莫奇 álvaro Morte 饰)带着他们的女儿住进了尼克曾经居住过的房子。
      有一个电闪雷鸣的夜晚,薇拉意外的在电视里看到了尼克,让薇拉感到震惊的是,自己似乎能够通过电视和25年前的尼克对话。在薇拉的告诫之下,尼克免于一死,但过去的改变也牵连着薇拉的生活发生了巨变。大卫不再是薇拉的丈夫,而他们的女儿自然也不复存在。

    获奖情况  

      第6届豆瓣电影年度榜单(2019)
      评分最高的科幻/动作片(提名)
    1. Video
    2. ID                                       : 1
    3. Format                                   : AVC
    4. Format/Info                              : Advanced Video Codec
    5. Format profile                           : High@L4
    6. Format settings                          : CABAC / 5 Ref Frames
    7. Format settings, CABAC                   : Yes
    8. Format settings, Reference frames        : 5 frames
    9. Codec ID                                 : V_MPEG4/ISO/AVC
    10. Duration                                 : 2 h 8 min
    11. Bit rate                                 : 8 664 kb/s
    12. Width                                    : 1 920 pixels
    13. Height                                   : 800 pixels
    14. Display aspect ratio                     : 2.40:1
    15. Frame rate mode                          : Constant
    16. Frame rate                               : 23.976 (24000/1001) FPS
    17. Color space                              : YUV
    18. Chroma subsampling                       : 4:2:0
    19. Bit depth                                : 8 bits
    20. Scan type                                : Progressive
    21. Bits/(Pixel*Frame)                       : 0.235
    22. Stream size                              : 7.80 GiB (93%)
    23. Writing library                          : x264 core 157 r2935 545de2f
    24. Encoding settings                        : cabac=1 / ref=5 / deblock=1:-3:-3 / analyse=0x3:0x133 / me=umh / subme=10 / psy=1 / psy_rd=1.00:0.00 / mixed_ref=1 / me_range=32 / chroma_me=1 / trellis=2 / 8x8dct=1 / cqm=0 / deadzone=21,11 / fast_pskip=0 / chroma_qp_offset=-2 / threads=18 / lookahead_threads=4 / sliced_threads=0 / nr=0 / decimate=0 / interlaced=0 / bluray_compat=0 / constrained_intra=0 / bframes=16 / b_pyramid=2 / b_adapt=2 / b_bias=0 / direct=3 / weightb=1 / open_gop=0 / weightp=2 / keyint=240 / keyint_min=24 / scenecut=40 / intra_refresh=0 / rc_lookahead=60 / rc=crf / mbtree=0 / crf=15.0 / qcomp=0.60 / qpmin=0 / qpmax=69 / qpstep=4 / vbv_maxrate=62500 / vbv_bufsize=78125 / crf_max=0.0 / nal_hrd=none / filler=0 / ip_ratio=1.40 / pb_ratio=1.30 / aq=2:1.00
    25. Default                                  : Yes
    26. Forced                                   : No
    27. Color range                              : Limited
    28. Color primaries                          : BT.709
    29. Transfer characteristics                 : BT.709
    30. Matrix coefficients                      : BT.709

    31. Audio
    32. ID                                       : 2
    33. Format                                   : AC-3
    34. Format/Info                              : Audio Coding 3
    35. Commercial name                          : Dolby Digital
    36. Codec ID                                 : A_AC3
    37. Duration                                 : 2 h 8 min
    38. Bit rate mode                            : Constant
    39. Bit rate                                 : 640 kb/s
    40. Channel(s)                               : 6 channels
    41. Channel layout                           : L R C LFE Ls Rs
    42. Sampling rate                            : 48.0 kHz
    43. Frame rate                               : 31.250 FPS (1536 SPF)
    44. Bit depth                                : 16 bits
    45. Compression mode                         : Lossy
    46. Stream size                              : 590 MiB (7%)
    47. Language                                 : Spanish
    48. Service kind                             : Complete Main
    49. Default                                  : Yes
    50. Forced                                   : No

    51. Text #1
    52. ID                                       : 3
    53. Format                                   : UTF-8
    54. Codec ID                                 : S_TEXT/UTF8
    55. Codec ID/Info                            : UTF-8 Plain Text
    56. Duration                                 : 2 h 7 min
    57. Bit rate                                 : 41 b/s
    58. Count of elements                        : 1398
    59. Stream size                              : 39.0 KiB (0%)
    60. Language                                 : English
    61. Default                                  : Yes
    62. Forced                                   : No

    63. Text #2
    64. ID                                       : 4
    65. Format                                   : PGS
    66. Muxing mode                              : zlib
    67. Codec ID                                 : S_HDMV/PGS
    68. Codec ID/Info                            : Picture based subtitle format used on BDs/HD-DVDs
    69. Duration                                 : 2 h 5 min
    70. Bit rate                                 : 32.4 kb/s
    71. Count of elements                        : 3512
    72. Stream size                              : 29.2 MiB (0%)
    73. Language                                 : Spanish
    74. Default                                  : No
    75. Forced                                   : No

    76. Menu
    77. 00:00:00.000                             : :Chapter 1
    78. 00:08:02.565                             : :Chapter 2
    79. 00:16:47.340                             : :Chapter 3
    80. 00:24:41.397                             : :Chapter 4
    81. 00:32:52.888                             : :Chapter 5
    82. 00:38:51.704                             : :Chapter 6
    83. 00:48:31.242                             : :Chapter 7
    84. 00:56:32.014                             : :Chapter 8
    85. 01:03:06.324                             : :Chapter 9
    86. 01:10:32.061                             : :Chapter 10
    87. 01:17:45.744                             : :Chapter 11
    88. 01:26:27.683                             : :Chapter 12
    89. 01:35:39.692                             : :Chapter 13
    90. 01:43:52.643                             : :Chapter 14
    91. 01:52:36.541                             : :Chapter 15
    92. 02:02:20.458                             : :Chapter 16
    复制代码

    海市蜃楼 Mirage.2018.SPANISH.1080p.BluRay.x264-HANDJOB 8.39GB-2.png
    海市蜃楼 Mirage.2018.SPANISH.1080p.BluRay.x264-HANDJOB 8.39GB-3.png
    海市蜃楼 Mirage.2018.SPANISH.1080p.BluRay.x264-HANDJOB 8.39GB-4.png

    游客,如果您要查看本帖隐藏内容请回复




    大中午的快困死蓝光君了
    回复

    使用道具 举报

    该用户从未签到

    0

    主题

    1万

    帖子

    1万

    积分

    论坛元老

    Rank: 8Rank: 8

    积分
    16484
    发表于 2020-6-26 14:23:08 | 显示全部楼层
    这个帖子不回对不起自己!我想我是一天也不能离开蓝光电影网
    回复 支持 反对

    使用道具 举报

    该用户从未签到

    0

    主题

    190

    帖子

    168

    积分

    注册会员

    Rank: 2

    积分
    168
    发表于 2020-6-26 17:40:52 | 显示全部楼层
    楼主太厉害了!楼主,电影应该很好看我觉得蓝光电影下载真是个好地方!
    回复 支持 反对

    使用道具 举报

    该用户从未签到

    0

    主题

    1万

    帖子

    1万

    积分

    论坛元老

    Rank: 8Rank: 8

    积分
    10325
    发表于 2020-6-26 18:03:30 | 显示全部楼层
    回复 支持 反对

    使用道具 举报

    该用户从未签到

    0

    主题

    1万

    帖子

    1万

    积分

    论坛元老

    Rank: 8Rank: 8

    积分
    10325
    发表于 2020-6-26 18:15:25 | 显示全部楼层
    回复 支持 反对

    使用道具 举报

    该用户从未签到

    0

    主题

    1万

    帖子

    1万

    积分

    论坛元老

    Rank: 8Rank: 8

    积分
    11423
    发表于 2020-6-27 06:39:04 | 显示全部楼层
    回复 支持 反对

    使用道具 举报

    该用户从未签到

    0

    主题

    1万

    帖子

    1万

    积分

    论坛元老

    Rank: 8Rank: 8

    积分
    11423
    发表于 2020-6-27 06:43:38 | 显示全部楼层
    回复 支持 反对

    使用道具 举报

    该用户从未签到

    0

    主题

    1万

    帖子

    1万

    积分

    论坛元老

    Rank: 8Rank: 8

    积分
    11423
    发表于 2020-6-27 12:31:57 | 显示全部楼层
    回复 支持 反对

    使用道具 举报

    该用户从未签到

    0

    主题

    1万

    帖子

    1万

    积分

    论坛元老

    Rank: 8Rank: 8

    积分
    16484
    发表于 2020-6-27 22:55:13 | 显示全部楼层
    回复 支持 反对

    使用道具 举报

  • TA的每日心情
    郁闷
    2020-6-27 22:59
  • 签到天数: 1 天

    [LV.1]初来乍到

    0

    主题

    3

    帖子

    10

    积分

    新手上路

    Rank: 1

    积分
    10
    发表于 2020-6-27 22:59:31 | 显示全部楼层
    回复 支持 反对

    使用道具 举报

    懒得打字嘛,点击右侧快捷回复 【右侧内容,后台自定义】
    您需要登录后才可以回帖 登录 | 立即注册

    本版积分规则

    郑重声明,本站所有作品片源来自互联网公开渠道,均为网友上传交流学习,影视版权均归原电影公司所有,如有侵犯版权,请与 2322694662@qq.com 联系,我们将立即删除。

    小黑屋|手机版|Archiver|百度统计|投诉|蓝光电影下载

    GMT+8, 2021-1-19 22:38 , Processed in 0.043545 second(s), 17 queries , Gzip On, MemCached On.

    Powered by Discuz! X3.4

    © 2001-2013 Comsenz Inc.

    快速回复 返回顶部 返回列表