快捷导航
查看: 1577|回复: 38

[剧情] 危险情人 Shoot.Out.1971.OAR.PROPER.1080p.BluRay.x264-UNVEiL 8.75GB

[复制链接]
  • TA的每日心情
    开心
    7 天前
  • 签到天数: 244 天

    [LV.8]以坛为家I

    1万

    主题

    1万

    帖子

    9万

    积分

    管理员

    蓝光君

    Rank: 9Rank: 9Rank: 9

    积分
    93844

    活跃会员热心会员推广达人突出贡献优秀版主荣誉管理论坛元老

    QQ
    发表于 2020-6-26 14:23:58 | 显示全部楼层 |阅读模式


    危险情人 Shoot.Out.1971.OAR.PROPER.1080p.BluRay.x264-UNVEiL 8.75GB-1.png


    译  名 危险情人 / Abrechnung in Gun Hill
    片  名 Shoot Out
    年  代 1971
    产  地 美国
    类  别 西部
    语  言 英语
    上映日期 1971-08-16
    IMDb评分  6.2/10 from 1407 users
    IMDb链接  https://www.imdb.com/title/tt0067750
    豆瓣评分 0/10 from 0 users
    豆瓣链接 https://movie.douban.com/subject/1295110/
    片  长 95 分钟
    导  演 亨利·哈撒韦 Henry Hathaway
    编  剧 Marguerite Roberts / Will James
    主  演 格利高里·派克 Gregory Peck
           帕特里夏·奎因 Patricia Quinn
           罗伯特·F·莱昂斯 Robert F. Lyons
           苏珊·泰瑞尔 Susan Tyrrell
           杰夫·科里 Jeff Corey
           詹姆斯·格雷戈里 James Gregory


    标  签 美国 | 美国电影 | 西部片 | 爱情 | 西部 | 经典老片 | 简单爱 | 喜剧

    简  介  

      A former bank robber searches for his double crossing partner who left him for dead, while having to look after a 6 year old girl.
    1. Video
    2. ID                                       : 1
    3. Format                                   : AVC
    4. Format/Info                              : Advanced Video Codec
    5. Format profile                           : High@L4
    6. Format settings                          : CABAC / 4 Ref Frames
    7. Format settings, CABAC                   : Yes
    8. Format settings, Reference frames        : 4 frames
    9. Codec ID                                 : V_MPEG4/ISO/AVC
    10. Duration                                 : 1 h 34 min
    11. Bit rate                                 : 11.7 Mb/s
    12. Width                                    : 1 920 pixels
    13. Height                                   : 1 040 pixels
    14. Display aspect ratio                     : 1.85:1
    15. Frame rate mode                          : Constant
    16. Frame rate                               : 23.976 (24000/1001) FPS
    17. Color space                              : YUV
    18. Chroma subsampling                       : 4:2:0
    19. Bit depth                                : 8 bits
    20. Scan type                                : Progressive
    21. Bits/(Pixel*Frame)                       : 0.245
    22. Stream size                              : 7.57 GiB (87%)
    23. Writing library                          : x264 core 158 r2988 7817004
    24. Encoding settings                        : cabac=1 / ref=4 / deblock=1:-3:-3 / analyse=0x3:0x133 / me=umh / subme=8 / psy=1 / psy_rd=1.00:0.15 / mixed_ref=1 / me_range=16 / chroma_me=1 / trellis=2 / 8x8dct=1 / cqm=0 / deadzone=21,11 / fast_pskip=0 / chroma_qp_offset=-3 / threads=32 / lookahead_threads=5 / sliced_threads=0 / nr=0 / decimate=1 / interlaced=0 / bluray_compat=0 / constrained_intra=0 / bframes=3 / b_pyramid=2 / b_adapt=2 / b_bias=0 / direct=3 / weightb=1 / open_gop=0 / weightp=2 / keyint=240 / keyint_min=24 / scenecut=40 / intra_refresh=0 / rc_lookahead=40 / rc=2pass / mbtree=1 / bitrate=11736 / ratetol=1.0 / qcomp=0.60 / qpmin=0 / qpmax=69 / qpstep=4 / cplxblur=20.0 / qblur=0.5 / ip_ratio=1.40 / aq=1:1.00
    25. Language                                 : English
    26. Default                                  : Yes
    27. Forced                                   : No

    28. Audio
    29. ID                                       : 2
    30. Format                                   : DTS
    31. Format/Info                              : Digital Theater Systems
    32. Codec ID                                 : A_DTS
    33. Duration                                 : 1 h 34 min
    34. Bit rate mode                            : Constant
    35. Bit rate                                 : 1 509 kb/s
    36. Channel(s)                               : 2 channels
    37. Channel layout                           : L R
    38. Sampling rate                            : 48.0 kHz
    39. Frame rate                               : 93.750 FPS (512 SPF)
    40. Bit depth                                : 24 bits
    41. Compression mode                         : Lossy
    42. Stream size                              : 1 019 MiB (11%)
    43. Language                                 : English
    44. Default                                  : Yes
    45. Forced                                   : No

    46. Menu
    47. 00:00:00.000                             : en:00:00:00.000
    48. 00:01:55.866                             : en:00:01:55.866
    49. 00:07:11.640                             : en:00:07:11.640
    50. 00:15:39.981                             : en:00:15:39.981
    51. 00:22:12.665                             : en:00:22:12.665
    52. 00:30:13.478                             : en:00:30:13.478
    53. 00:35:19.576                             : en:00:35:19.576
    54. 00:38:43.530                             : en:00:38:43.530
    55. 00:49:02.982                             : en:00:49:02.982
    56. 00:58:35.721                             : en:00:58:35.721
    57. 01:04:48.718                             : en:01:04:48.718
    58. 01:10:21.426                             : en:01:10:21.426
    59. 01:16:16.155                             : en:01:16:16.155
    60. 01:21:33.055                             : en:01:21:33.055
    61. 01:24:33.777                             : en:01:24:33.777
    62. 01:33:39.948                             : en:01:33:39.948
    复制代码

    危险情人 Shoot.Out.1971.OAR.PROPER.1080p.BluRay.x264-UNVEiL 8.75GB-2.png

    本帖隐藏的内容需要VIP会员才可浏览,您需要升级才可浏览,点击这里升级VIP




    大中午的快困死蓝光君了
    回复

    使用道具 举报

    该用户从未签到

    0

    主题

    1万

    帖子

    1万

    积分

    论坛元老

    Rank: 8Rank: 8

    积分
    14219
    发表于 2020-6-26 14:24:11 | 显示全部楼层
    感谢楼主的无私分享!要想蓝光高清电影网好 就靠你我他
    回复 支持 反对

    使用道具 举报

    该用户从未签到

    0

    主题

    3848

    帖子

    2186

    积分

    金牌会员

    Rank: 6Rank: 6

    积分
    2186
    发表于 2020-6-26 15:14:04 | 显示全部楼层
    回复 支持 反对

    使用道具 举报

    该用户从未签到

    0

    主题

    1万

    帖子

    1万

    积分

    论坛元老

    Rank: 8Rank: 8

    积分
    14259
    发表于 2020-6-26 15:14:28 | 显示全部楼层
    回复 支持 反对

    使用道具 举报

    该用户从未签到

    0

    主题

    2万

    帖子

    2万

    积分

    论坛元老

    Rank: 8Rank: 8

    积分
    22944
    发表于 2020-6-26 15:14:28 | 显示全部楼层
    回复 支持 反对

    使用道具 举报

    该用户从未签到

    0

    主题

    7539

    帖子

    7078

    积分

    论坛元老

    Rank: 8Rank: 8

    积分
    7078
    发表于 2020-6-26 18:03:32 | 显示全部楼层
    楼主太厉害了!楼主,电影应该很好看我觉得蓝光电影下载真是个好地方!
    回复 支持 反对

    使用道具 举报

    该用户从未签到

    0

    主题

    3809

    帖子

    2888

    积分

    金牌会员

    Rank: 6Rank: 6

    积分
    2888
    发表于 2020-6-26 18:13:29 | 显示全部楼层
    回复 支持 反对

    使用道具 举报

    该用户从未签到

    0

    主题

    2万

    帖子

    2万

    积分

    论坛元老

    Rank: 8Rank: 8

    积分
    22944
    发表于 2020-6-27 08:14:39 | 显示全部楼层
    回复 支持 反对

    使用道具 举报

    该用户从未签到

    0

    主题

    2万

    帖子

    2万

    积分

    论坛元老

    Rank: 8Rank: 8

    积分
    22944
    发表于 2020-6-27 14:56:33 | 显示全部楼层
    回复 支持 反对

    使用道具 举报

    该用户从未签到

    0

    主题

    1507

    帖子

    582

    积分

    高级会员

    Rank: 4

    积分
    582
    发表于 2020-6-27 23:04:08 | 显示全部楼层
    回复 支持 反对

    使用道具 举报

    懒得打字嘛,点击右侧快捷回复 【右侧内容,后台自定义】
    您需要登录后才可以回帖 登录 | 立即注册

    本版积分规则

    郑重声明,本站所有作品片源来自互联网公开渠道,均为网友上传交流学习,影视版权均归原电影公司所有,如有侵犯版权,请与 2322694662@qq.com 联系,我们将立即删除。

    小黑屋|手机版|Archiver|百度统计|投诉|蓝光电影下载

    GMT+8, 2021-5-11 12:42 , Processed in 0.077307 second(s), 22 queries , Gzip On, MemCached On.

    Powered by Discuz! X3.4

    © 2001-2013 Comsenz Inc.

    快速回复 返回顶部 返回列表