快捷导航
查看: 1333|回复: 61

[剧情] 群山 The.Mountain.2018.1080p.BluRay.x264-BiPOLAR 8.75GB

  [复制链接]
  • TA的每日心情
    开心
    2020-2-15 21:32
  • 签到天数: 240 天

    [LV.8]以坛为家I

    1万

    主题

    1万

    帖子

    6万

    积分

    管理员

    蓝光君

    Rank: 9Rank: 9Rank: 9

    积分
    63172

    活跃会员热心会员推广达人突出贡献优秀版主荣誉管理论坛元老

    QQ
    发表于 2020-6-26 14:36:11 | 显示全部楼层 |阅读模式

    群山 The.Mountain.2018.1080p.BluRay.x264-BiPOLAR 8.75GB-1.png


    译  名 群山
    片  名 The Mountain
    年  代 2018
    产  地 美国
    类  别 剧情
    语  言 英语
    上映日期 2018-08-30(威尼斯电影节)
    IMDb评分  5.6/10 from 954 users
    IMDb链接  https://www.imdb.com/title/tt7950334
    豆瓣评分 5.9/10 from 167 users
    豆瓣链接 https://movie.douban.com/subject/30149810/
    片  长 106分钟
    导  演 瑞克·艾弗森 Rick Alverson
    编  剧 瑞克·艾弗森 Rick Alverson / Dustin Guy Defa / 科姆·奥利里 Colm O'Leary
    主  演 泰伊·谢里丹 Tye Sheridan
           杰夫·高布伦 Jeff Goldblum
           汉娜·格罗斯 Hannah Gross
           德尼·拉旺 Denis Lavant
           乌多·基尔 Udo Kier
           安玛丽·劳莱丝 Annemarie Lawless
           艾米·斯蒂勒 Amy Stiller
           拉瑞·凡斯登 Larry Fessenden
           维尼·考克斯 Veanne Cox
           巴迪·杜瑞斯 Buddy Duress
           苏珊·阿瑟 Susan Aser
           丹妮尔·史密斯 Danielle Smith


    标  签 美国 | 2018 | 剧情 | 威尼斯电影节 | 瑞克·艾弗森 | 实验 | 杰夫·高布伦 | Sheridan

    简  介  

      一位年轻男子在失去母亲后,与一名专门从事切除术和治疗的医生一起工作的故事。

    获奖情况  

      第75届威尼斯电影节(2018)
      主竞赛单元 金狮奖 (提名) 瑞克·艾弗森
    1. Video
    2. ID                                       : 1
    3. Format                                   : AVC
    4. Format/Info                              : Advanced Video Codec
    5. Format profile                           : High@L4
    6. Format settings                          : CABAC / 4 Ref Frames
    7. Format settings, CABAC                   : Yes
    8. Format settings, Reference frames        : 4 frames
    9. Codec ID                                 : V_MPEG4/ISO/AVC
    10. Duration                                 : 1 h 49 min
    11. Bit rate                                 : 9 947 kb/s
    12. Width                                    : 1 440 pixels
    13. Height                                   : 1 080 pixels
    14. Display aspect ratio                     : 4:3
    15. Frame rate mode                          : Constant
    16. Frame rate                               : 23.976 (24000/1001) FPS
    17. Color space                              : YUV
    18. Chroma subsampling                       : 4:2:0
    19. Bit depth                                : 8 bits
    20. Scan type                                : Progressive
    21. Bits/(Pixel*Frame)                       : 0.267
    22. Stream size                              : 7.59 GiB (87%)
    23. Writing library                          : x264 core 157 r2969 d4099dd
    24. Encoding settings                        : cabac=1 / ref=4 / deblock=1:-3:-3 / analyse=0x3:0x133 / me=umh / subme=9 / psy=1 / psy_rd=1.00:0.00 / mixed_ref=1 / me_range=16 / chroma_me=1 / trellis=2 / 8x8dct=1 / cqm=0 / deadzone=21,11 / fast_pskip=0 / chroma_qp_offset=-2 / threads=18 / lookahead_threads=1 / sliced_threads=0 / nr=0 / decimate=1 / interlaced=0 / bluray_compat=0 / constrained_intra=0 / bframes=3 / b_pyramid=2 / b_adapt=1 / b_bias=0 / direct=3 / weightb=1 / open_gop=0 / weightp=2 / keyint=240 / keyint_min=24 / scenecut=40 / intra_refresh=0 / rc_lookahead=50 / rc=2pass / mbtree=1 / bitrate=9947 / ratetol=1.0 / qcomp=0.60 / qpmin=0 / qpmax=69 / qpstep=4 / cplxblur=20.0 / qblur=0.5 / ip_ratio=1.40 / aq=1:1.00
    25. Language                                 : English
    26. Default                                  : Yes
    27. Forced                                   : No

    28. Audio
    29. ID                                       : 2
    30. Format                                   : DTS
    31. Format/Info                              : Digital Theater Systems
    32. Codec ID                                 : A_DTS
    33. Duration                                 : 1 h 49 min
    34. Bit rate mode                            : Constant
    35. Bit rate                                 : 1 509 kb/s
    36. Channel(s)                               : 6 channels
    37. Channel layout                           : C L R Ls Rs LFE
    38. Sampling rate                            : 48.0 kHz
    39. Frame rate                               : 93.750 FPS (512 SPF)
    40. Bit depth                                : 24 bits
    41. Compression mode                         : Lossy
    42. Stream size                              : 1.15 GiB (13%)
    43. Language                                 : English
    44. Default                                  : Yes
    45. Forced                                   : No

    46. Text #1
    47. ID                                       : 3
    48. Format                                   : UTF-8
    49. Codec ID                                 : S_TEXT/UTF8
    50. Codec ID/Info                            : UTF-8 Plain Text
    51. Duration                                 : 1 h 44 min
    52. Bit rate                                 : 13 b/s
    53. Count of elements                        : 421
    54. Stream size                              : 10.1 KiB (0%)
    55. Title                                    : English
    56. Language                                 : English
    57. Default                                  : No
    58. Forced                                   : No

    59. Text #2
    60. ID                                       : 4
    61. Format                                   : UTF-8
    62. Codec ID                                 : S_TEXT/UTF8
    63. Codec ID/Info                            : UTF-8 Plain Text
    64. Duration                                 : 1 h 46 min
    65. Bit rate                                 : 20 b/s
    66. Count of elements                        : 917
    67. Stream size                              : 16.1 KiB (0%)
    68. Title                                    : English SDH
    69. Language                                 : English
    70. Default                                  : No
    71. Forced                                   : No

    72. Text #3
    73. ID                                       : 5
    74. Format                                   : UTF-8
    75. Codec ID                                 : S_TEXT/UTF8
    76. Codec ID/Info                            : UTF-8 Plain Text
    77. Duration                                 : 1 h 36 min
    78. Bit rate                                 : 13 b/s
    79. Count of elements                        : 410
    80. Stream size                              : 9.76 KiB (0%)
    81. Title                                    : French
    82. Language                                 : French
    83. Default                                  : No
    84. Forced                                   : No

    85. Menu
    86. 00:00:00.000                             : en:00:00:00.000
    87. 00:10:24.707                             : en:00:10:24.707
    88. 00:22:10.412                             : en:00:22:10.412
    89. 00:33:55.909                             : en:00:33:55.909
    90. 00:44:02.640                             : en:00:44:02.640
    91. 00:57:08.800                             : en:00:57:08.800
    92. 01:09:25.453                             : en:01:09:25.453
    93. 01:21:23.087                             : en:01:21:23.087
    94. 01:31:21.726                             : en:01:31:21.726
    95. 01:39:22.957                             : en:01:39:22.957
    复制代码

    群山 The.Mountain.2018.1080p.BluRay.x264-BiPOLAR 8.75GB-2.png

    游客,如果您要查看本帖隐藏内容请回复




    大中午的快困死蓝光君了
    回复

    使用道具 举报

    该用户从未签到

    0

    主题

    38

    帖子

    6

    积分

    新手上路

    Rank: 1

    积分
    6
    发表于 2020-6-26 14:36:23 | 显示全部楼层
    回复 支持 反对

    使用道具 举报

    该用户从未签到

    0

    主题

    1万

    帖子

    1万

    积分

    论坛元老

    Rank: 8Rank: 8

    积分
    17189
    发表于 2020-6-26 14:36:27 | 显示全部楼层
    感谢楼主的无私分享!要想蓝光高清电影网好 就靠你我他
    回复 支持 反对

    使用道具 举报

    该用户从未签到

    0

    主题

    1万

    帖子

    1万

    积分

    论坛元老

    Rank: 8Rank: 8

    积分
    10785
    发表于 2020-6-26 15:14:02 | 显示全部楼层
    楼主太厉害了!楼主,电影应该很好看我觉得蓝光电影下载真是个好地方!
    回复 支持 反对

    使用道具 举报

    该用户从未签到

    0

    主题

    1万

    帖子

    1万

    积分

    论坛元老

    Rank: 8Rank: 8

    积分
    11882
    发表于 2020-6-26 15:15:14 | 显示全部楼层
    回复 支持 反对

    使用道具 举报

    该用户从未签到

    0

    主题

    1万

    帖子

    1万

    积分

    论坛元老

    Rank: 8Rank: 8

    积分
    10785
    发表于 2020-6-26 17:15:20 | 显示全部楼层
    回复 支持 反对

    使用道具 举报

    该用户从未签到

    0

    主题

    38

    帖子

    6

    积分

    新手上路

    Rank: 1

    积分
    6
    发表于 2020-6-26 18:03:33 | 显示全部楼层
    回复 支持 反对

    使用道具 举报

    该用户从未签到

    0

    主题

    1万

    帖子

    1万

    积分

    论坛元老

    Rank: 8Rank: 8

    积分
    11882
    发表于 2020-6-27 04:06:42 | 显示全部楼层
    回复 支持 反对

    使用道具 举报

  • TA的每日心情
    开心
    2020-6-27 04:05
  • 签到天数: 1 天

    [LV.1]初来乍到

    0

    主题

    2

    帖子

    10

    积分

    新手上路

    Rank: 1

    积分
    10
    发表于 2020-6-27 04:07:13 | 显示全部楼层
    回复 支持 反对

    使用道具 举报

    该用户从未签到

    0

    主题

    1万

    帖子

    1万

    积分

    论坛元老

    Rank: 8Rank: 8

    积分
    10785
    发表于 2020-6-27 12:19:44 | 显示全部楼层
    回复 支持 反对

    使用道具 举报

    懒得打字嘛,点击右侧快捷回复 【右侧内容,后台自定义】
    您需要登录后才可以回帖 登录 | 立即注册

    本版积分规则

    郑重声明,本站所有作品片源来自互联网公开渠道,均为网友上传交流学习,影视版权均归原电影公司所有,如有侵犯版权,请与 2322694662@qq.com 联系,我们将立即删除。

    小黑屋|手机版|Archiver|百度统计|投诉|蓝光电影下载

    GMT+8, 2020-12-4 19:55 , Processed in 0.039910 second(s), 17 queries , Gzip On, MemCached On.

    Powered by Discuz! X3.4

    © 2001-2013 Comsenz Inc.

    快速回复 返回顶部 返回列表