快捷导航
查看: 125|回复: 10

[动作] 超人 Superman.The.Movie.1978.REMASTERED.1080p.BluRay.x264.DTS-SWTYBLZ 14.92GB

[复制链接]
  • TA的每日心情
    开心
    2019-9-28 10:25
  • 签到天数: 231 天

    [LV.7]常住居民III

    6805

    主题

    7071

    帖子

    2万

    积分

    管理员

    蓝光君

    Rank: 9Rank: 9Rank: 9

    积分
    25298

    活跃会员热心会员推广达人突出贡献优秀版主荣誉管理论坛元老

    QQ
    发表于 2018-11-4 10:15:10 | 显示全部楼层 |阅读模式
    超人 Superman.The.Movie.1978.REMASTERED.1080p.BluRay.x264.DTS-SWTYBLZ 14.92GB
    超人 Superman.The.Movie.1978.REMASTERED.1080p.BluRay.x264.DTS-SWTYBLZ 14.92GB-1.jpg
    ◎译  名 超人
    ◎片  名 超人 Superman
    ◎年  代 1978
    ◎国  家 美国 / 英国
    ◎类  别 动作 / 科幻 / 冒险
    ◎语  言 英语
    ◎上映日期 1978-12-10(华盛顿首映) / 1978-12-15(美国)
    ◎IMDb评分  7.3/10 from 143,433 users
    ◎IMDb链接  http://www.imdb.com/title/tt0078346/
    ◎豆瓣评分 7.5/10 from 11629 users
    ◎豆瓣链接 https://movie.douban.com/subject/1300916/
    ◎片  长 143分钟 / 127分钟(1980videorelease) / 151分钟(2000restoration) / 189分钟(特别加长版)
    ◎导  演 理查德·唐纳
    ◎主  演 克里斯托弗·里夫
          马龙·白兰度
          吉恩·哈克曼
          尼德·巴蒂
          杰基·库珀
          格伦·福特
          特瑞沃·霍华德
          玛戈·基德
          杰克·奥哈罗兰
          瓦莱丽·佩莱恩
          玛丽亚·雪儿
          特伦斯·斯坦普
          菲莉丝·德丝达
          苏珊娜·约克
          杰夫·伊斯特
          马克·麦克卢尔
          莎拉·道格拉斯

    ◎简  介 

      1978年版的电影由克里斯托弗·里夫饰演,他一共饰演了四个版本《超人》系列电影。 氪星即将毁灭之际,为保持种族的延续,科学家乔·艾尔通过飞船将他尚在襁褓中的儿子卡尔(克里斯托弗·里夫 Christopher Reeve 饰)送往地球。卡尔被地球上的肯特夫妇抚养成人,改名为克拉克,他具有超人的能力,将成为地球上正义和真理的守护者。长大了的卡尔来到大都市,成为《行星日报》的记者。平时,他是温文尔雅的普通记者,危急时刻就变成穿着紧身衣、披着斗篷在空中自由飞翔的守护神超人。当邪恶的鲁索妄图统治全世界时,超人是唯一能够制止他的人。

    ◎获奖情况 

      第51届奥斯卡金像奖 (1979)
      最佳剪辑(提名) 斯图尔特·贝尔德
      最佳音响(提名) Nicolas Le Messurier /  Gordon K. McCallum /  Roy Charman /  Graham V. Hartstone
      最佳原创配乐(提名) 约翰·威廉姆斯
      特别成就奖 Les Bowie /  佐兰·佩里西克 /  Roy Field /  Colin Chilvers /  德里克·麦丁斯 /  Denys N. Coop

    • Video
    • ID                                       : 1
    • Format                                   : AVC
    • Format/Info                              : Advanced Video Codec
    • Format profile                           : [email protected]
    • Format settings                          : CABAC / 5 Ref Frames
    • Format settings, CABAC                   : Yes
    • Format settings, ReFrames                : 5 frames
    • Codec ID                                 : V_MPEG4/ISO/AVC
    • Duration                                 : 2 h 23 min
    • Bit rate                                 : 13.4 Mb/s
    • Width                                    : 1 920 pixels
    • Height                                   : 800 pixels
    • Display aspect ratio                     : 2.40:1
    • Frame rate mode                          : Constant
    • Frame rate                               : 23.976 (24000/1001) FPS
    • Color space                              : YUV
    • Chroma subsampling                       : 4:2:0
    • Bit depth                                : 8 bits
    • Scan type                                : Progressive
    • Bits/(Pixel*Frame)                       : 0.364
    • Stream size                              : 13.4 GiB (90%)
    • Title                                    : Superman.The.Movie.1978.REMASTERED.1080p.BluRay.x264.DTS-SWTYBLZ
    • Writing library                          : x264 core 157 r2935 545de2f
    • Encoding settings                        : cabac=1 / ref=5 / deblock=1:-1:-1 / analyse=0x3:0x133 / me=umh / subme=10 / psy=1 / psy_rd=1.00:0.15 / mixed_ref=1 / me_range=48 / chroma_me=1 / trellis=2 / 8x8dct=1 / cqm=0 / deadzone=21,11 / fast_pskip=1 / chroma_qp_offset=-3 / threads=25 / lookahead_threads=4 / sliced_threads=0 / nr=0 / decimate=0 / interlaced=0 / bluray_compat=0 / constrained_intra=0 / bframes=8 / b_pyramid=2 / b_adapt=2 / b_bias=0 / direct=3 / weightb=1 / open_gop=0 / weightp=2 / keyint=250 / keyint_min=23 / scenecut=40 / intra_refresh=0 / rc_lookahead=60 / rc=crf / mbtree=1 / crf=18.0 / qcomp=0.60 / qpmin=0 / qpmax=69 / qpstep=4 / ip_ratio=1.40 / aq=1:1.00
    • Language                                 : English
    • Default                                  : Yes
    • Forced                                   : No
    • Audio
    • ID                                       : 2
    • Format                                   : DTS
    • Format/Info                              : Digital Theater Systems
    • Codec ID                                 : A_DTS
    • Duration                                 : 2 h 23 min
    • Bit rate mode                            : Constant
    • Bit rate                                 : 1 509 kb/s
    • Channel(s)                               : 6 channels
    • Channel layout                           : C L R Ls Rs LFE
    • Sampling rate                            : 48.0 kHz
    • Frame rate                               : 93.750 FPS (512 SPF)
    • Bit depth                                : 24 bits
    • Compression mode                         : Lossy
    • Stream size                              : 1.51 GiB (10%)
    • Title                                    : Superman.The.Movie.1978.REMASTERED.1080p.BluRay.x264.DTS-SWTYBLZ
    • Language                                 : English
    • Default                                  : Yes
    • Forced                                   : No
    • Text
    • ID                                       : 3
    • Format                                   : UTF-8
    • Codec ID                                 : S_TEXT/UTF8
    • Codec ID/Info                            : UTF-8 Plain Text
    • Duration                                 : 2 h 14 min
    • Bit rate                                 : 49 b/s
    • Count of elements                        : 1276
    • Stream size                              : 48.3 KiB (0%)
    • Title                                    : English-SRT
    • Language                                 : English
    • Default                                  : Yes
    • Forced                                   : No
    • Menu
    • 00:00:00.000                             : :Chapter 1
    • 00:05:18.985                             : :Chapter 2
    • 00:09:38.202                             : :Chapter 3
    • 00:11:17.968                             : :Chapter 4
    • 00:13:43.989                             : :Chapter 5
    • 00:17:43.062                             : :Chapter 6
    • 00:21:41.800                             : :Chapter 7
    • 00:23:23.026                             : :Chapter 8
    • 00:26:18.410                             : :Chapter 9
    • 00:29:46.576                             : :Chapter 10
    • 00:33:34.429                             : :Chapter 11
    • 00:39:06.052                             : :Chapter 12
    • 00:42:42.226                             : :Chapter 13
    • 00:48:00.794                             : :Chapter 14
    • 00:52:10.335                             : :Chapter 15
    • 00:55:23.778                             : :Chapter 16
    • 00:59:55.758                             : :Chapter 17
    • 01:02:42.467                             : :Chapter 18
    • 01:04:48.759                             : :Chapter 19
    • 01:07:57.406                             : :Chapter 20
    • 01:10:41.070                             : :Chapter 21
    • 01:15:30.484                             : :Chapter 22
    • 01:17:10.917                             : :Chapter 23
    • 01:20:36.581                             : :Chapter 24
    • 01:25:32.502                             : :Chapter 25
    • 01:28:35.476                             : :Chapter 26
    • 01:32:03.893                             : :Chapter 27
    • 01:34:15.149                             : :Chapter 28
    • 01:37:53.909                             : :Chapter 29
    • 01:41:19.198                             : :Chapter 30
    • 01:42:41.405                             : :Chapter 31
    • 01:46:37.933                             : :Chapter 32
    • 01:51:33.978                             : :Chapter 33
    • 01:55:05.815                             : :Chapter 34
    • 01:57:49.937                             : :Chapter 35
    • 02:01:46.424                             : :Chapter 36
    • 02:04:30.004                             : :Chapter 37
    • 02:07:18.130                             : :Chapter 38
    • 02:10:37.037                             : :Chapter 39
    • 02:14:19.384                             : :Chapter 40
    • 02:15:40.132                             : :Chapter 41

    复制代码

    超人 Superman.The.Movie.1978.REMASTERED.1080p.BluRay.x264.DTS-SWTYBLZ 14.92GB-2.png 超人 Superman.The.Movie.1978.REMASTERED.1080p.BluRay.x264.DTS-SWTYBLZ 14.92GB-3.png 超人 Superman.The.Movie.1978.REMASTERED.1080p.BluRay.x264.DTS-SWTYBLZ 14.92GB-4.png
    游客,如果您要查看本帖隐藏内容请回复

    大中午的快困死蓝光君了
    回复

    使用道具 举报

    该用户从未签到

    0

    主题

    242

    帖子

    30

    积分

    新手上路

    Rank: 1

    积分
    30
    发表于 2018-11-11 16:53:50 | 显示全部楼层
    回复 支持 反对

    使用道具 举报

    该用户从未签到

    0

    主题

    708

    帖子

    78

    积分

    注册会员

    Rank: 2

    积分
    78
    发表于 2019-2-4 01:53:27 | 显示全部楼层
    回复 支持 反对

    使用道具 举报

    该用户从未签到

    0

    主题

    1163

    帖子

    12

    积分

    新手上路

    Rank: 1

    积分
    12
    发表于 2019-7-13 12:06:29 | 显示全部楼层
    回复 支持 反对

    使用道具 举报

    该用户从未签到

    0

    主题

    679

    帖子

    501

    积分

    高级会员

    Rank: 4

    积分
    501
    发表于 2019-8-17 19:01:55 | 显示全部楼层

    非常精彩的电影,下来收藏,感谢楼主
    回复 支持 反对

    使用道具 举报

    该用户从未签到

    0

    主题

    6267

    帖子

    5105

    积分

    论坛元老

    Rank: 8Rank: 8

    积分
    5105
    发表于 2019-8-26 16:33:47 | 显示全部楼层
    回复 支持 反对

    使用道具 举报

    该用户从未签到

    0

    主题

    1074

    帖子

    492

    积分

    中级会员

    Rank: 3Rank: 3

    积分
    492
    发表于 2019-8-31 09:35:41 | 显示全部楼层
    感谢楼主的无私分享!要想蓝光高清电影网好 就靠你我他
    回复 支持 反对

    使用道具 举报

    该用户从未签到

    0

    主题

    369

    帖子

    116

    积分

    注册会员

    Rank: 2

    积分
    116
    发表于 2019-9-2 20:13:07 | 显示全部楼层
    回复 支持 反对

    使用道具 举报

    该用户从未签到

    0

    主题

    3458

    帖子

    649

    积分

    高级会员

    Rank: 4

    积分
    649
    发表于 2019-9-3 11:35:27 | 显示全部楼层
    回复 支持 反对

    使用道具 举报

    该用户从未签到

    0

    主题

    6267

    帖子

    5105

    积分

    论坛元老

    Rank: 8Rank: 8

    积分
    5105
    发表于 2019-9-14 10:29:35 | 显示全部楼层
    楼主太厉害了!楼主,电影应该很好看我觉得蓝光电影下载真是个好地方!
    回复 支持 反对

    使用道具 举报

    懒得打字嘛,点击右侧快捷回复 【右侧内容,后台自定义】
    您需要登录后才可以回帖 登录 | 立即注册

    本版积分规则

    郑重声明,本站所有作品片源来自互联网公开渠道,均为网友上传交流学习,影视版权均归原电影公司所有,如有侵犯版权,请与 2322694662@qq.com 联系,我们将立即删除。

    小黑屋|手机版|Archiver|百度统计|投诉|蓝光电影下载     

    GMT+8, 2019-10-24 09:46 , Processed in 0.067496 second(s), 22 queries , Gzip On, MemCache On.

    Powered by Discuz! X3.3

    © 2001-2013 Comsenz Inc.

    快速回复 返回顶部 返回列表