快捷导航
查看: 22|回复: 9

马龙听我说 Listen.to.Me.Marlon.2015.LIMITED.1080p.BluRay.x264-USURY 6.86GB

[复制链接]
  • TA的每日心情
    开心
    2020-2-15 21:32
  • 签到天数: 240 天

    [LV.8]以坛为家I

    1万

    主题

    1万

    帖子

    7万

    积分

    管理员

    蓝光君

    Rank: 9Rank: 9Rank: 9

    积分
    77260

    活跃会员热心会员推广达人突出贡献优秀版主荣誉管理论坛元老

    QQ
    发表于 2021-2-3 20:04:28 | 显示全部楼层 |阅读模式
    1. 帖子完整标题:马龙听我说 Listen.to.Me.Marlon.2015.LIMITED.1080p.BluRay.x264-USURY 6.86GB
    复制代码
    马龙听我说 Listen.to.Me.Marlon.2015.LIMITED.1080p.BluRay.x264-USURY 6.86GB-1.jpeg


    译  名 马龙,听我说 / Lying for a Living / 马龙白兰度的私语(港)
    片  名 Listen to Me Marlon
    年  代 2015
    产  地 英国
    类  别 纪录片 / 传记
    语  言 英语
    上映日期 2015-01-24(圣丹斯电影节) / 2015-10-23(英国)
    IMDb评分  8.2/10 from 6826 users
    IMDb链接  https://www.imdb.com/title/tt4145178
    豆瓣评分 8.5/10 from 2719 users
    豆瓣链接 https://movie.douban.com/subject/26276504/
    片  长 103分钟
    导  演 斯蒂文·莱利 Stevan Riley
    编  剧 斯蒂文·莱利 Stevan Riley / Peter Ettedgui
    主  演 马龙·白兰度 Marlon Brando


    标  签 纪录片 | 传记 | 马龙白兰度 | 美国 | 英国 | 2015 | 人生 | 演员

    简  介   

      这部纪录片由马龙·白兰度自己录制的视频和音频构成,通过他的音容笑貌去了解他伟大的演艺生涯,以及远离尘嚣的私人生活。

    获奖情况  

      第69届英国电影学院奖(2016)
      电影奖 最佳纪录片(提名) 斯蒂文·莱利 / George Chignell / 约翰·巴特瑟克 / R·J·卡特勒

      第31届圣丹斯电影节(2015)
      评审团大奖 世界电影单元纪录片(提名) 斯蒂文·莱利

      第87届美国国家评论协会奖(2015)
      五佳纪录片
    1. Video
    2. ID                                       : 1
    3. Format                                   : AVC
    4. Format/Info                              : Advanced Video Codec
    5. Format profile                           : High@L4
    6. Format settings                          : CABAC / 4 Ref Frames
    7. Format settings, CABAC                   : Yes
    8. Format settings, Reference frames        : 4 frames
    9. Codec ID                                 : V_MPEG4/ISO/AVC
    10. Duration                                 : 1 h 42 min
    11. Bit rate                                 : 8 372 kb/s
    12. Width                                    : 1 920 pixels
    13. Height                                   : 1 040 pixels
    14. Display aspect ratio                     : 1.85:1
    15. Frame rate mode                          : Constant
    16. Frame rate                               : 23.976 FPS
    17. Color space                              : YUV
    18. Chroma subsampling                       : 4:2:0
    19. Bit depth                                : 8 bits
    20. Scan type                                : Progressive
    21. Bits/(Pixel*Frame)                       : 0.175
    22. Stream size                              : 5.88 GiB (90%)
    23. Writing library                          : x264 core 148 r2638 7599210
    24. Encoding settings                        : cabac=1 / ref=4 / deblock=1:0:0 / analyse=0x3:0x133 / me=umh / subme=7 / psy=1 / psy_rd=1.00:0.00 / mixed_ref=1 / me_range=16 / chroma_me=1 / trellis=1 / 8x8dct=1 / cqm=0 / deadzone=21,11 / fast_pskip=0 / chroma_qp_offset=-2 / threads=6 / lookahead_threads=1 / sliced_threads=0 / nr=0 / decimate=1 / interlaced=0 / bluray_compat=0 / constrained_intra=0 / bframes=3 / b_pyramid=2 / b_adapt=2 / b_bias=0 / direct=3 / weightb=1 / open_gop=0 / weightp=2 / keyint=250 / keyint_min=23 / scenecut=40 / intra_refresh=0 / rc_lookahead=50 / rc=2pass / mbtree=1 / bitrate=8372 / ratetol=1.0 / qcomp=0.60 / qpmin=0 / qpmax=69 / qpstep=4 / cplxblur=20.0 / qblur=0.5 / ip_ratio=1.40 / aq=1:1.00
    25. Language                                 : English
    26. Default                                  : Yes
    27. Forced                                   : No

    28. Audio
    29. ID                                       : 2
    30. Format                                   : DTS
    31. Format/Info                              : Digital Theater Systems
    32. Codec ID                                 : A_DTS
    33. Duration                                 : 1 h 42 min
    34. Bit rate mode                            : Constant
    35. Bit rate                                 : 768 kb/s
    36. Channel(s)                               : 6 channels
    37. Channel layout                           : C L R Ls Rs LFE
    38. Sampling rate                            : 48.0 kHz
    39. Frame rate                               : 93.750 FPS (512 SPF)
    40. Bit depth                                : 24 bits
    41. Compression mode                         : Lossy
    42. Stream size                              : 564 MiB (8%)
    43. Language                                 : English
    44. Default                                  : Yes
    45. Forced                                   : No

    46. Menu
    47. 00:00:00.000                             : en:00:00:00.000
    48. 00:07:13.767                             : en:00:07:13.767
    49. 00:16:46.297                             : en:00:16:46.297
    50. 00:23:51.305                             : en:00:23:51.305
    51. 00:33:18.997                             : en:00:33:18.997
    52. 00:40:54.786                             : en:00:40:54.786
    53. 00:49:39.351                             : en:00:49:39.351
    54. 00:58:12.489                             : en:00:58:12.489
    55. 01:08:11.629                             : en:01:08:11.629
    56. 01:15:08.796                             : en:01:15:08.796
    57. 01:23:47.064                             : en:01:23:47.064
    58. 01:30:31.676                             : en:01:30:31.676
    复制代码

    马龙听我说 Listen.to.Me.Marlon.2015.LIMITED.1080p.BluRay.x264-USURY 6.86GB-2.jpeg

    本帖隐藏的内容需要注册登陆才可浏览,您需要注册才可浏览,点击这里注册




    大中午的快困死蓝光君了
    回复

    使用道具 举报

    该用户从未签到

    0

    主题

    1万

    帖子

    1万

    积分

    论坛元老

    Rank: 8Rank: 8

    积分
    10891
    发表于 2021-2-3 20:04:38 | 显示全部楼层
    这个帖子不回对不起自己!我想我是一天也不能离开蓝光电影网
    回复 支持 反对

    使用道具 举报

    该用户从未签到

    0

    主题

    7175

    帖子

    6930

    积分

    论坛元老

    Rank: 8Rank: 8

    积分
    6930
    发表于 2021-2-3 20:27:17 | 显示全部楼层
    回复 支持 反对

    使用道具 举报

    该用户从未签到

    0

    主题

    1万

    帖子

    1万

    积分

    论坛元老

    Rank: 8Rank: 8

    积分
    11956
    发表于 2021-2-6 13:50:42 | 显示全部楼层
    回复 支持 反对

    使用道具 举报

    该用户从未签到

    0

    主题

    1万

    帖子

    1万

    积分

    论坛元老

    Rank: 8Rank: 8

    积分
    11956
    发表于 2021-2-6 15:59:28 | 显示全部楼层
    回复 支持 反对

    使用道具 举报

    该用户从未签到

    0

    主题

    1666

    帖子

    1534

    积分

    金牌会员

    Rank: 6Rank: 6

    积分
    1534
    发表于 2021-2-11 15:45:43 | 显示全部楼层
    回复 支持 反对

    使用道具 举报

    该用户从未签到

    0

    主题

    1万

    帖子

    1万

    积分

    论坛元老

    Rank: 8Rank: 8

    积分
    11956
    发表于 2021-2-15 20:20:40 | 显示全部楼层
    回复 支持 反对

    使用道具 举报

    该用户从未签到

    0

    主题

    722

    帖子

    535

    积分

    高级会员

    Rank: 4

    积分
    535
    发表于 2021-2-15 20:20:42 | 显示全部楼层

    是个好电影!必须要看的!多谢分享!
    回复 支持 反对

    使用道具 举报

    该用户从未签到

    0

    主题

    2万

    帖子

    1万

    积分

    论坛元老

    Rank: 8Rank: 8

    积分
    17501
    发表于 4 天前 | 显示全部楼层
    回复 支持 反对

    使用道具 举报

    该用户从未签到

    0

    主题

    1万

    帖子

    1万

    积分

    论坛元老

    Rank: 8Rank: 8

    积分
    11956
    发表于 3 天前 | 显示全部楼层

    非常精彩的电影,下来收藏,感谢楼主
    回复 支持 反对

    使用道具 举报

    懒得打字嘛,点击右侧快捷回复 【右侧内容,后台自定义】
    您需要登录后才可以回帖 登录 | 立即注册

    本版积分规则

    郑重声明,本站所有作品片源来自互联网公开渠道,均为网友上传交流学习,影视版权均归原电影公司所有,如有侵犯版权,请与 2322694662@qq.com 联系,我们将立即删除。

    小黑屋|手机版|Archiver|百度统计|投诉|蓝光电影下载

    GMT+8, 2021-2-27 05:17 , Processed in 0.081382 second(s), 27 queries , Gzip On, MemCached On.

    Powered by Discuz! X3.4

    © 2001-2013 Comsenz Inc.

    快速回复 返回顶部 返回列表