快捷导航
查看: 10464|回复: 60

食人鱼3DD/3D食人鱼2:全面猎杀 Piranha.3DD.2012.LIMITED.1080p.BluRay.x264-PSYCHD 6.55GB

  [复制链接]
  • TA的每日心情

    2022-11-20 15:48
  • 签到天数: 138 天

    [LV.7]常住居民III

    2527

    主题

    140

    回帖

    6366

    积分

    发布组

    积分
    6366
    发表于 2021-2-5 13:41:19 | 显示全部楼层 |阅读模式
    1. 帖子完整标题:食人鱼3DD/3D食人鱼2:全面猎杀 Piranha.3DD.2012.LIMITED.1080p.BluRay.x264-PSYCHD 6.55GB
    复制代码
    食人鱼3DD/3D食人鱼2:全面猎杀 Piranha.3DD.2012.LIMITED.1080p.BluRay.x264-PSYCHD 6.55GB-1.jpeg


    译  名 食人鱼3DD / 3D食人鱼2:全面猎杀(台) / 变种食人鲳3DD 祼命水世界(港) / 食人鱼2 / 食人鱼3D续集
    片  名 Piranha 3DD
    年  代 2012
    产  地 美国
    类  别 喜剧 / 惊悚 / 恐怖 / 灾难
    语  言 英语
    上映日期 2012-06-01(美国)
    IMDb评分  3.7/10 from 39061 users
    IMDb链接  https://www.imdb.com/title/tt1714203
    豆瓣评分 4.6/10 from 13627 users
    豆瓣链接 https://movie.douban.com/subject/5323911/
    片  长 83分钟
    导  演 John Gulager
    编  剧 马库斯·邓斯坦 Marcus Dunstan / 帕特里克·梅尔顿 Patrick Melton
    主  演 丹妮尔·帕娜贝克 Danielle Panabaker
           Matt Bush
           Chris Zylka
           大卫·科恩查内 David Koechner
           Meagan Tandy
           Paul James Jordan
           让-卢克·比洛多 Jean-Luc Bilodeau
           赫克特·吉门雷兹 Héctor Jiménez
           Adrian Martinez
           克鲁·古拉格 Clu Gulager
           大卫·哈塞尔霍夫 David Hasselhoff


    标  签 血腥 | 美国 | 惊悚 | 恐怖 | 食人鱼3D | 2012 | 美国电影 | 喜剧

    简  介   

      前一波的食人鱼攻击终于画上了终点,此时,科学家们惊恐的发现,搅得人们天翻地覆的食人鱼居然还是处在初级形态的幼崽,天知道等到它们长大之时,又会闹出什么乱子!
      上一次的惨剧给谢尔比(丹妮尔·帕娜贝克 Danielle Panabaker 饰)的心里留下了深深的阴影,当她得知叔叔要在某处建立大型的豪华水上乐园时,谢尔比感到了强烈的不安。果不其然,不靠谱的叔叔为了节省经费,直接引入了附近的湖水,就这样,一大波食人鱼也随之而来,对于它们来说,一场饕餮大餐即将开席。面对着惨叫哭号的人们,谢尔比内心强烈的正义感让她无法对此坐视不管,勇敢的她连同幸存的伙伴们展开了轰轰烈烈的救援活动。

    获奖情况  

      第33届金酸莓奖(2013)
      最差男配角(提名) 大卫·哈塞尔霍夫
      最差前传、重拍、恶搞及续集电影(提名)
    1. Video
    2. ID                                       : 1
    3. Format                                   : AVC
    4. Format/Info                              : Advanced Video Codec
    5. Format profile                           : High@L4
    6. Format settings                          : CABAC / 4 Ref Frames
    7. Format settings, CABAC                   : Yes
    8. Format settings, Reference frames        : 4 frames
    9. Codec ID                                 : V_MPEG4/ISO/AVC
    10. Duration                                 : 1 h 22 min
    11. Bit rate                                 : 9 842 kb/s
    12. Width                                    : 1 920 pixels
    13. Height                                   : 1 080 pixels
    14. Display aspect ratio                     : 16:9
    15. Frame rate mode                          : Constant
    16. Frame rate                               : 23.976 (24000/1001/189150) FPS
    17. Color space                              : YUV
    18. Chroma subsampling                       : 4:2:0
    19. Bit depth                                : 8 bits
    20. Scan type                                : Progressive
    21. Bits/(Pixel*Frame)                       : 0.198
    22. Stream size                              : 5.55 GiB (85%)
    23. Writing library                          : x264 core 125 r2208 d9d2288
    24. Encoding settings                        : cabac=1 / ref=4 / deblock=1:0:0 / analyse=0x3:0x113 / me=umh / subme=8 / psy=1 / psy_rd=1.00:0.00 / mixed_ref=1 / me_range=16 / chroma_me=1 / trellis=1 / 8x8dct=1 / cqm=0 / deadzone=21,11 / fast_pskip=1 / chroma_qp_offset=-2 / threads=12 / lookahead_threads=2 / sliced_threads=0 / nr=0 / decimate=1 / interlaced=0 / bluray_compat=0 / constrained_intra=0 / bframes=3 / b_pyramid=2 / b_adapt=2 / b_bias=0 / direct=3 / weightb=1 / open_gop=0 / weightp=2 / keyint=240 / keyint_min=24 / scenecut=40 / intra_refresh=0 / rc_lookahead=50 / rc=2pass / mbtree=1 / bitrate=9842 / ratetol=1.0 / qcomp=0.60 / qpmin=0 / qpmax=69 / qpstep=4 / cplxblur=20.0 / qblur=0.5 / ip_ratio=1.40 / aq=1:1.00
    25. Language                                 : English
    26. Default                                  : Yes
    27. Forced                                   : No

    28. Audio
    29. ID                                       : 2
    30. Format                                   : DTS
    31. Format/Info                              : Digital Theater Systems
    32. Codec ID                                 : A_DTS
    33. Duration                                 : 1 h 22 min
    34. Bit rate mode                            : Constant
    35. Bit rate                                 : 1 509 kb/s
    36. Channel(s)                               : 6 channels
    37. Channel layout                           : C L R Ls Rs LFE
    38. Sampling rate                            : 48.0 kHz
    39. Frame rate                               : 93.750 FPS (512 SPF)
    40. Bit depth                                : 24 bits
    41. Compression mode                         : Lossy
    42. Stream size                              : 893 MiB (13%)
    43. Language                                 : English
    44. Default                                  : Yes
    45. Forced                                   : No

    46. Text
    47. ID                                       : 3
    48. Format                                   : UTF-8
    49. Codec ID                                 : S_TEXT/UTF8
    50. Codec ID/Info                            : UTF-8 Plain Text
    51. Language                                 : English
    52. Default                                  : No
    53. Forced                                   : No

    54. Menu
    55. 00:00:00.000                             : en:00:00:00.000
    56. 00:06:20.880                             : en:00:06:20.880
    57. 00:11:47.874                             : en:00:11:47.874
    58. 00:14:14.062                             : en:00:14:14.062
    59. 00:18:44.332                             : en:00:18:44.332
    60. 00:21:37.546                             : en:00:21:37.546
    61. 00:25:05.045                             : en:00:25:05.045
    62. 00:31:39.481                             : en:00:31:39.481
    63. 00:36:03.870                             : en:00:36:03.870
    64. 00:41:50.341                             : en:00:41:50.341
    65. 00:45:10.124                             : en:00:45:10.124
    66. 00:51:20.911                             : en:00:51:20.911
    67. 00:57:03.253                             : en:00:57:03.253
    68. 01:00:12.692                             : en:01:00:12.692
    69. 01:05:28.424                             : en:01:05:28.424
    70. 01:10:43.406                             : en:01:10:43.406
    复制代码

    食人鱼3DD/3D食人鱼2:全面猎杀 Piranha.3DD.2012.LIMITED.1080p.BluRay.x264-PSYCHD 6.55GB-2.png
    食人鱼3DD/3D食人鱼2:全面猎杀 Piranha.3DD.2012.LIMITED.1080p.BluRay.x264-PSYCHD 6.55GB-3.png
    食人鱼3DD/3D食人鱼2:全面猎杀 Piranha.3DD.2012.LIMITED.1080p.BluRay.x264-PSYCHD 6.55GB-4.png
    食人鱼3DD/3D食人鱼2:全面猎杀 Piranha.3DD.2012.LIMITED.1080p.BluRay.x264-PSYCHD 6.55GB-5.png
    食人鱼3DD/3D食人鱼2:全面猎杀 Piranha.3DD.2012.LIMITED.1080p.BluRay.x264-PSYCHD 6.55GB-6.png

    游客,如果您要查看本帖隐藏内容请回复




    回复

    使用道具 举报

    该用户从未签到

    0

    主题

    4847

    回帖

    4924

    积分

    论坛元老

    Rank: 8Rank: 8

    积分
    4924
    发表于 2021-2-5 14:49:46 | 显示全部楼层
    回复 支持 反对

    使用道具 举报

    该用户从未签到

    0

    主题

    3523

    回帖

    3747

    积分

    论坛元老

    Rank: 8Rank: 8

    积分
    3747
    发表于 2021-2-5 15:01:52 | 显示全部楼层
    回复 支持 反对

    使用道具 举报

    该用户从未签到

    0

    主题

    2544

    回帖

    2898

    积分

    金牌会员

    Rank: 6Rank: 6

    积分
    2898
    发表于 2021-2-5 16:54:10 | 显示全部楼层
    楼主太厉害了!楼主,电影应该很好看我觉得蓝光电影下载真是个好地方!
    回复 支持 反对

    使用道具 举报

    该用户从未签到

    0

    主题

    6207

    回帖

    6324

    积分

    论坛元老

    Rank: 8Rank: 8

    积分
    6324
    发表于 2021-2-5 16:56:21 | 显示全部楼层
    感谢楼主的无私分享!要想蓝光高清电影网好 就靠你我他
    回复 支持 反对

    使用道具 举报

    该用户从未签到

    0

    主题

    2993

    回帖

    3062

    积分

    论坛元老

    Rank: 8Rank: 8

    积分
    3062
    发表于 2021-2-8 00:28:34 | 显示全部楼层
    回复 支持 反对

    使用道具 举报

  • TA的每日心情
    慵懒
    2022-9-15 21:40
  • 签到天数: 1 天

    [LV.1]初来乍到

    0

    主题

    2万

    回帖

    2万

    积分

    论坛元老

    Rank: 8Rank: 8

    积分
    29181
    发表于 2021-2-15 16:43:10 | 显示全部楼层
    回复 支持 反对

    使用道具 举报

    该用户从未签到

    0

    主题

    1018

    回帖

    1064

    积分

    金牌会员

    Rank: 6Rank: 6

    积分
    1064
    发表于 2021-2-19 13:55:51 | 显示全部楼层

    是个好电影!必须要看的!多谢分享!
    回复 支持 反对

    使用道具 举报

    该用户从未签到

    0

    主题

    2

    回帖

    8

    积分

    新手上路

    Rank: 1

    积分
    8
    发表于 2021-2-19 13:59:49 | 显示全部楼层
    回复 支持 反对

    使用道具 举报

    该用户从未签到

    0

    主题

    1087

    回帖

    1217

    积分

    金牌会员

    Rank: 6Rank: 6

    积分
    1217
    发表于 2021-2-19 13:59:57 | 显示全部楼层

    非常精彩的电影,下来收藏,感谢楼主
    回复 支持 反对

    使用道具 举报

    懒得打字嘛,点击右侧快捷回复 【右侧内容,后台自定义】
    您需要登录后才可以回帖 登录 | 立即注册

    本版积分规则

    郑重声明,本站所有作品片源来自互联网公开渠道,均为网友上传交流学习,影视版权均归原电影公司所有,如有侵犯版权,请与 2322694662@qq.com 联系,我们将立即删除。

    小黑屋|手机版|Archiver|投诉|51la|蓝光电影下载

    GMT+8, 2024-4-23 02:35 , Processed in 0.135736 second(s), 45 queries , Gzip On.

    Powered by Discuz! X3.4

    © 2001-2013 Comsenz Inc.

    快速回复 返回顶部 返回列表