快捷导航
查看: 9|回复: 4

[剧情] 西部/西方 Western.2017.LIMITED.1080p.BluRay.x264-USURY 8.75GB

[复制链接]
  • TA的每日心情
    开心
    2020-2-15 21:32
  • 签到天数: 240 天

    [LV.8]以坛为家I

    1万

    主题

    1万

    帖子

    7万

    积分

    管理员

    蓝光君

    Rank: 9Rank: 9Rank: 9

    积分
    77260

    活跃会员热心会员推广达人突出贡献优秀版主荣誉管理论坛元老

    QQ
    发表于 2021-2-12 12:32:39 | 显示全部楼层 |阅读模式
    1. 帖子完整标题:西部/西方 Western.2017.LIMITED.1080p.BluRay.x264-USURY 8.75GB
    复制代码
    西部/西方 Western.2017.LIMITED.1080p.BluRay.x264-USURY 8.75GB-1.jpeg


    译  名 西部 / 西方
    片  名 Western
    年  代 2017
    产  地 德国 / 保加利亚 / 奥地利
    类  别 剧情
    语  言 德语 / 保加利亚语 / 英语
    上映日期 2017-05-18(戛纳电影节) / 2017-08-24(德国)
    IMDb评分  7.0/10 from 3301 users
    IMDb链接  https://www.imdb.com/title/tt5157326
    豆瓣评分 6.6/10 from 437 users
    豆瓣链接 https://movie.douban.com/subject/24872188/
    片  长 120分钟
    导  演 瓦莱斯卡·格里巴赫 Valeska Grisebach
    编  剧 瓦莱斯卡·格里巴赫 Valeska Grisebach
    主  演 缅因哈德·纽曼 Meinhard Neumann
           莱因哈特·威特雷克 Reinhardt Wetrek
           Syuleyman Alilov Letifov
           Veneta Fragnova
           Viara Borisova
           Kevin Bashev
           Aliosman Deliev
           Momchil Sinanov
           Robert Gawellek
           Jens Klein


    标  签 德国 | 保加利亚 | 2017 | 剧情 | 奥地利 | 独立电影 | 戛纳 | 文艺

    简  介   

      在保加利亚的一处偏远农村,一群德国建筑工人开始了一项难度极大的施工任务。外国的土地让工人们心中的冒险意识开始觉醒,但是他们也要面对自身产生的偏见,以及由语言障碍和文化差异导致的种种误解。当工人们为了赢得当地人的认可以及信任而开始竞争时,剧情开始迅速发展。

    获奖情况  

      第70届戛纳电影节(2017)
      一种关注单元 一种关注大奖(提名) 瓦莱斯卡·格里巴赫

      第1届平遥国际电影展(2017)
      首映单元最受欢迎影片(提名) 瓦莱斯卡·格里巴赫
    1. Video
    2. ID                                       : 1
    3. Format                                   : AVC
    4. Format/Info                              : Advanced Video Codec
    5. Format profile                           : High@L4
    6. Format settings                          : CABAC / 4 Ref Frames
    7. Format settings, CABAC                   : Yes
    8. Format settings, Reference frames        : 4 frames
    9. Codec ID                                 : V_MPEG4/ISO/AVC
    10. Duration                                 : 2 h 0 min
    11. Bit rate                                 : 8 865 kb/s
    12. Width                                    : 1 920 pixels
    13. Height                                   : 1 040 pixels
    14. Display aspect ratio                     : 1.85:1
    15. Frame rate mode                          : Constant
    16. Frame rate                               : 24.000 FPS
    17. Color space                              : YUV
    18. Chroma subsampling                       : 4:2:0
    19. Bit depth                                : 8 bits
    20. Scan type                                : Progressive
    21. Bits/(Pixel*Frame)                       : 0.185
    22. Stream size                              : 7.47 GiB (85%)
    23. Writing library                          : x264 core 155 r2901 7d0ff22
    24. Encoding settings                        : cabac=1 / ref=4 / deblock=1:-3:-3 / analyse=0x3:0x133 / me=umh / subme=9 / psy=1 / psy_rd=1.00:0.00 / mixed_ref=1 / me_range=16 / chroma_me=1 / trellis=2 / 8x8dct=1 / cqm=0 / deadzone=21,11 / fast_pskip=0 / chroma_qp_offset=-2 / threads=24 / lookahead_threads=2 / sliced_threads=0 / nr=0 / decimate=1 / interlaced=0 / bluray_compat=0 / constrained_intra=0 / bframes=3 / b_pyramid=2 / b_adapt=1 / b_bias=0 / direct=3 / weightb=1 / open_gop=0 / weightp=2 / keyint=240 / keyint_min=24 / scenecut=40 / intra_refresh=0 / rc_lookahead=50 / rc=2pass / mbtree=1 / bitrate=8865 / ratetol=1.0 / qcomp=0.60 / qpmin=0 / qpmax=69 / qpstep=4 / cplxblur=20.0 / qblur=0.5 / ip_ratio=1.40 / aq=1:1.00
    25. Language                                 : English
    26. Default                                  : Yes
    27. Forced                                   : No

    28. Audio
    29. ID                                       : 2
    30. Format                                   : DTS
    31. Format/Info                              : Digital Theater Systems
    32. Codec ID                                 : A_DTS
    33. Duration                                 : 2 h 0 min
    34. Bit rate mode                            : Constant
    35. Bit rate                                 : 1 509 kb/s
    36. Channel(s)                               : 6 channels
    37. Channel layout                           : C L R Ls Rs LFE
    38. Sampling rate                            : 48.0 kHz
    39. Frame rate                               : 93.750 FPS (512 SPF)
    40. Bit depth                                : 24 bits
    41. Compression mode                         : Lossy
    42. Stream size                              : 1.27 GiB (15%)
    43. Language                                 : German
    44. Default                                  : Yes
    45. Forced                                   : No

    46. Text
    47. ID                                       : 3
    48. Format                                   : UTF-8
    49. Codec ID                                 : S_TEXT/UTF8
    50. Codec ID/Info                            : UTF-8 Plain Text
    51. Duration                                 : 1 h 59 min
    52. Bit rate                                 : 28 b/s
    53. Count of elements                        : 1038
    54. Stream size                              : 25.2 KiB (0%)
    55. Title                                    : English
    56. Language                                 : English
    57. Default                                  : Yes
    58. Forced                                   : Yes

    59. Menu
    60. 00:00:00.000                             : en:00:00:00.000
    61. 00:09:37.417                             : en:00:09:37.417
    62. 00:18:38.667                             : en:00:18:38.667
    63. 00:31:59.125                             : en:00:31:59.125
    64. 00:39:34.417                             : en:00:39:34.417
    65. 00:49:01.333                             : en:00:49:01.333
    66. 01:01:02.125                             : en:01:01:02.125
    67. 01:09:58.750                             : en:01:09:58.750
    68. 01:21:03.125                             : en:01:21:03.125
    69. 01:31:55.000                             : en:01:31:55.000
    70. 01:45:07.000                             : en:01:45:07.000
    71. 01:55:47.208                             : en:01:55:47.208
    72. 00:10:00.000                             : en:00:10:00.000
    复制代码

    西部/西方 Western.2017.LIMITED.1080p.BluRay.x264-USURY 8.75GB-2.jpeg

    本帖隐藏的内容需要注册登陆才可浏览,您需要注册才可浏览,点击这里注册




    大中午的快困死蓝光君了
    回复

    使用道具 举报

    该用户从未签到

    0

    主题

    865

    帖子

    766

    积分

    高级会员

    Rank: 4

    积分
    766
    发表于 2021-2-16 18:25:44 | 显示全部楼层
    感谢楼主的无私分享!要想蓝光高清电影网好 就靠你我他
    回复 支持 反对

    使用道具 举报

    该用户从未签到

    0

    主题

    1437

    帖子

    42

    积分

    新手上路

    Rank: 1

    积分
    42
    发表于 2021-2-19 09:03:00 | 显示全部楼层

    非常精彩的电影,下来收藏,感谢楼主
    回复 支持 反对

    使用道具 举报

    该用户从未签到

    0

    主题

    1万

    帖子

    1万

    积分

    论坛元老

    Rank: 8Rank: 8

    积分
    11956
    发表于 2021-2-19 14:35:12 | 显示全部楼层
    回复 支持 反对

    使用道具 举报

    该用户从未签到

    0

    主题

    2万

    帖子

    1万

    积分

    论坛元老

    Rank: 8Rank: 8

    积分
    17501
    发表于 4 天前 | 显示全部楼层

    是个好电影!必须要看的!多谢分享!
    回复 支持 反对

    使用道具 举报

    懒得打字嘛,点击右侧快捷回复 【右侧内容,后台自定义】
    您需要登录后才可以回帖 登录 | 立即注册

    本版积分规则

    郑重声明,本站所有作品片源来自互联网公开渠道,均为网友上传交流学习,影视版权均归原电影公司所有,如有侵犯版权,请与 2322694662@qq.com 联系,我们将立即删除。

    小黑屋|手机版|Archiver|百度统计|投诉|蓝光电影下载

    GMT+8, 2021-2-27 06:00 , Processed in 0.087419 second(s), 28 queries , Gzip On, MemCached On.

    Powered by Discuz! X3.4

    © 2001-2013 Comsenz Inc.

    快速回复 返回顶部 返回列表