快捷导航
查看: 33|回复: 10

[剧情] 维洛妮卡佛丝 Veronika.Voss.1982.1080p.BluRay.x264-USURY 9.84GB

[复制链接]
  • TA的每日心情
    开心
    2020-2-15 21:32
  • 签到天数: 240 天

    [LV.8]以坛为家I

    1万

    主题

    1万

    帖子

    7万

    积分

    管理员

    蓝光君

    Rank: 9Rank: 9Rank: 9

    积分
    78434

    活跃会员热心会员推广达人突出贡献优秀版主荣誉管理论坛元老

    QQ
    发表于 2021-2-12 14:05:24 | 显示全部楼层 |阅读模式
    1. 帖子完整标题:维洛妮卡佛丝 Veronika.Voss.1982.1080p.BluRay.x264-USURY 9.84GB
    复制代码
    维洛妮卡佛丝 Veronika.Voss.1982.1080p.BluRay.x264-USURY 9.84GB-1.jpeg


    译  名 维洛妮卡佛丝 / Veronika Voss / 维罗尼卡·福斯的欲望 / 过气女伶
    片  名 Die Sehnsucht der Veronika Voss
    年  代 1982
    产  地 西德
    类  别 剧情
    语  言 德语 / 英语
    上映日期 1982-02-18(西德)
    IMDb评分  7.8/10 from 5915 users
    IMDb链接  https://www.imdb.com/title/tt0084654
    豆瓣评分 7.8/10 from 1863 users
    豆瓣链接 https://movie.douban.com/subject/1302108/
    片  长 104分钟
    导  演 赖纳·维尔纳·法斯宾德 Rainer Werner Fassbinder
    编  剧 赖纳·维尔纳·法斯宾德 Rainer Werner Fassbinder / Pea Fr?hlich / 彼特·马瑟斯米尔 Peter M?rthesheimer
    主  演 罗塞尔·泽希 Rosel Zech
           Hilmar Thate
           Cornelia Froboess
           Annemarie Düringer
           Doris Schade
           Erik Schumann
           Peter Berling
           Rainer Werner Fassbinder


    标  签 德国 | 法斯宾德 | 德国电影 | 1982 | RainerWernerFassbinder | 赖纳·维尔纳·法斯宾德 | 1980s | 黑白

    简  介   

      曾经红极一时的荣耀早已经成为了过去,如今维洛妮卡(洛塞尔·泽希 Rosel Zech 饰)变成了无人理会的昨日黄花。体育新闻记者罗伯特(Hilmar Thate 饰)曾是维洛妮卡的粉丝,当他再次见到她时,罗伯特只看到了一个沉迷于酒精和麻醉药品的过气女伶,他决定帮助维洛妮卡。
      维洛妮卡住在卡茨医生(Annemarie Düringer 饰)的诊所里,在那里,有许多和她一样落魄和可怜的人们,罗伯特发现,诊所的医生竟然利用自己的职位之便,为这些人们注射吗啡,以此为手段控制和勒索他们的钱财。罗伯特想要揭发这一罪行,却苦于找不到证据。维洛妮卡决定复出,然而,正是这个决定为维洛妮卡的死亡增加了最后的一枚砝码。

    获奖情况  

      第32届柏林国际电影节(1982)
      金熊奖 最佳影片 赖纳·维尔纳·法斯宾德
    1. Video
    2. ID                                       : 1
    3. Format                                   : AVC
    4. Format/Info                              : Advanced Video Codec
    5. Format profile                           : High@L4
    6. Format settings                          : CABAC / 4 Ref Frames
    7. Format settings, CABAC                   : Yes
    8. Format settings, Reference frames        : 4 frames
    9. Codec ID                                 : V_MPEG4/ISO/AVC
    10. Duration                                 : 1 h 44 min
    11. Bit rate                                 : 12.9 Mb/s
    12. Width                                    : 1 920 pixels
    13. Height                                   : 1 080 pixels
    14. Display aspect ratio                     : 16:9
    15. Frame rate mode                          : Constant
    16. Frame rate                               : 23.976 (24000/1001/189150) FPS
    17. Color space                              : YUV
    18. Chroma subsampling                       : 4:2:0
    19. Bit depth                                : 8 bits
    20. Scan type                                : Progressive
    21. Bits/(Pixel*Frame)                       : 0.259
    22. Stream size                              : 9.38 GiB (95%)
    23. Writing library                          : x264 core 157 r2969 d4099dd
    24. Encoding settings                        : cabac=1 / ref=4 / deblock=1:-3:-3 / analyse=0x3:0x133 / me=umh / subme=9 / psy=1 / psy_rd=1.00:0.00 / mixed_ref=1 / me_range=16 / chroma_me=1 / trellis=2 / 8x8dct=1 / cqm=0 / deadzone=21,11 / fast_pskip=0 / chroma_qp_offset=-2 / threads=18 / lookahead_threads=1 / sliced_threads=0 / nr=0 / decimate=1 / interlaced=0 / bluray_compat=0 / constrained_intra=0 / bframes=3 / b_pyramid=2 / b_adapt=1 / b_bias=0 / direct=3 / weightb=1 / open_gop=0 / weightp=2 / keyint=240 / keyint_min=24 / scenecut=40 / intra_refresh=0 / rc_lookahead=50 / rc=2pass / mbtree=1 / bitrate=12858 / ratetol=1.0 / qcomp=0.60 / qpmin=0 / qpmax=69 / qpstep=4 / cplxblur=20.0 / qblur=0.5 / ip_ratio=1.40 / aq=1:1.00
    25. Language                                 : English
    26. Default                                  : Yes
    27. Forced                                   : No

    28. Audio
    29. ID                                       : 2
    30. Format                                   : FLAC
    31. Format/Info                              : Free Lossless Audio Codec
    32. Codec ID                                 : A_FLAC
    33. Duration                                 : 1 h 44 min
    34. Bit rate mode                            : Variable
    35. Bit rate                                 : 619 kb/s
    36. Channel(s)                               : 1 channel
    37. Channel layout                           : C
    38. Sampling rate                            : 48.0 kHz
    39. Frame rate                               : 11.719 FPS (4096 SPF)
    40. Bit depth                                : 24 bits
    41. Compression mode                         : Lossless
    42. Stream size                              : 462 MiB (5%)
    43. Writing library                          : libFLAC 1.2.1 (UTC 2007-09-17)
    44. Language                                 : German
    45. Default                                  : Yes
    46. Forced                                   : No

    47. Text
    48. ID                                       : 3
    49. Format                                   : UTF-8
    50. Codec ID                                 : S_TEXT/UTF8
    51. Codec ID/Info                            : UTF-8 Plain Text
    52. Duration                                 : 1 h 41 min
    53. Bit rate                                 : 44 b/s
    54. Count of elements                        : 1163
    55. Stream size                              : 32.9 KiB (0%)
    56. Title                                    : English
    57. Language                                 : English
    58. Default                                  : Yes
    59. Forced                                   : Yes

    60. Menu
    61. 00:00:00.000                             : en:00:00:00.000
    62. 00:02:30.859                             : en:00:02:30.859
    63. 00:03:18.573                             : en:00:03:18.573
    64. 00:04:34.191                             : en:00:04:34.191
    65. 00:08:23.586                             : en:00:08:23.586
    66. 00:10:19.327                             : en:00:10:19.327
    67. 00:15:57.373                             : en:00:15:57.373
    68. 00:18:31.402                             : en:00:18:31.402
    69. 00:20:59.508                             : en:00:20:59.508
    70. 00:28:45.015                             : en:00:28:45.015
    71. 00:33:15.827                             : en:00:33:15.827
    72. 00:37:59.944                             : en:00:37:59.944
    73. 00:42:50.693                             : en:00:42:50.693
    74. 00:45:39.528                             : en:00:45:39.528
    75. 00:49:56.410                             : en:00:49:56.410
    76. 00:52:06.165                             : en:00:52:06.165
    77. 00:57:52.427                             : en:00:57:52.427
    78. 01:00:55.026                             : en:01:00:55.026
    79. 01:06:48.046                             : en:01:06:48.046
    80. 01:11:00.882                             : en:01:11:00.882
    81. 01:16:06.771                             : en:01:16:06.771
    82. 01:21:57.746                             : en:01:21:57.746
    83. 01:32:11.401                             : en:01:32:11.401
    复制代码

    维洛妮卡佛丝 Veronika.Voss.1982.1080p.BluRay.x264-USURY 9.84GB-2.jpeg
    本帖隐藏的内容需要VIP会员才可浏览,您需要升级才可浏览,点击这里升级VIP





    大中午的快困死蓝光君了
    回复

    使用道具 举报

    该用户从未签到

    0

    主题

    139

    帖子

    -5

    积分

    限制会员

    积分
    -5
    发表于 2021-2-12 14:07:30 | 显示全部楼层
    回复 支持 反对

    使用道具 举报

    该用户从未签到

    0

    主题

    2901

    帖子

    2265

    积分

    金牌会员

    Rank: 6Rank: 6

    积分
    2265
    发表于 2021-2-16 19:36:28 | 显示全部楼层
    这个帖子不回对不起自己!我想我是一天也不能离开蓝光电影网
    回复 支持 反对

    使用道具 举报

    该用户从未签到

    0

    主题

    1571

    帖子

    42

    积分

    新手上路

    Rank: 1

    积分
    42
    发表于 2021-2-16 19:40:57 | 显示全部楼层
    回复 支持 反对

    使用道具 举报

    该用户从未签到

    0

    主题

    2万

    帖子

    1万

    积分

    论坛元老

    Rank: 8Rank: 8

    积分
    17501
    发表于 2021-2-23 09:43:03 | 显示全部楼层
    回复 支持 反对

    使用道具 举报

    该用户从未签到

    0

    主题

    1万

    帖子

    1万

    积分

    论坛元老

    Rank: 8Rank: 8

    积分
    11956
    发表于 2021-2-23 16:54:58 | 显示全部楼层
    回复 支持 反对

    使用道具 举报

    该用户从未签到

    0

    主题

    176

    帖子

    10

    积分

    新手上路

    Rank: 1

    积分
    10
    发表于 7 天前 | 显示全部楼层

    是个好电影!必须要看的!多谢分享!
    回复 支持 反对

    使用道具 举报

    该用户从未签到

    0

    主题

    1万

    帖子

    1万

    积分

    论坛元老

    Rank: 8Rank: 8

    积分
    11956
    发表于 7 天前 | 显示全部楼层
    感谢楼主的无私分享!要想蓝光高清电影网好 就靠你我他
    回复 支持 反对

    使用道具 举报

    该用户从未签到

    0

    主题

    844

    帖子

    737

    积分

    高级会员

    Rank: 4

    积分
    737
    发表于 前天 09:18 | 显示全部楼层
    楼主太厉害了!楼主,电影应该很好看我觉得蓝光电影下载真是个好地方!
    回复 支持 反对

    使用道具 举报

    该用户从未签到

    0

    主题

    2901

    帖子

    2265

    积分

    金牌会员

    Rank: 6Rank: 6

    积分
    2265
    发表于 昨天 09:26 | 显示全部楼层
    回复 支持 反对

    使用道具 举报

    懒得打字嘛,点击右侧快捷回复 【右侧内容,后台自定义】
    您需要登录后才可以回帖 登录 | 立即注册

    本版积分规则

    郑重声明,本站所有作品片源来自互联网公开渠道,均为网友上传交流学习,影视版权均归原电影公司所有,如有侵犯版权,请与 2322694662@qq.com 联系,我们将立即删除。

    小黑屋|手机版|Archiver|百度统计|投诉|蓝光电影下载

    GMT+8, 2021-3-3 12:40 , Processed in 0.076234 second(s), 26 queries , Gzip On, MemCached On.

    Powered by Discuz! X3.4

    © 2001-2013 Comsenz Inc.

    快速回复 返回顶部 返回列表