快捷导航
查看: 924|回复: 30

深海狂鲨3 Deep.Blue.Sea.3.2020.1080p.BluRay.x264.DTS-HD.MA.5.1-FGT 11.07GB

[复制链接]
  • TA的每日心情
    开心
    2021-6-20 17:46
  • 签到天数: 247 天

    [LV.8]以坛为家I

    1万

    主题

    1万

    帖子

    10万

    积分

    管理员

    蓝光君

    Rank: 9Rank: 9Rank: 9

    积分
    109308

    活跃会员热心会员推广达人突出贡献优秀版主荣誉管理论坛元老

    QQ
    发表于 2021-2-12 14:56:23 | 显示全部楼层 |阅读模式
    1. 帖子完整标题:深海狂鲨3 Deep.Blue.Sea.3.2020.1080p.BluRay.x264.DTS-HD.MA.5.1-FGT 11.07GB
    复制代码
    深海狂鲨3 Deep.Blue.Sea.3.2020.1080p.BluRay.x264.DTS-HD.MA.5.1-FGT 11.07GB-1.jpeg


    译  名 深海狂鲨3
    片  名 Deep Blue Sea 3
    年  代 2020
    产  地 美国
    类  别 动作 / 科幻 / 恐怖
    语  言 英语
    上映日期 2020-07-28(美国)
    IMDb链接  https://www.imdb.com/title/tt11946300
    豆瓣评分 0/10 from 0 users
    豆瓣链接 https://movie.douban.com/subject/35101514/
    片  长 99分钟
    导  演 约翰·波罗 John Pogue
    编  剧 德克·布莱克曼 Dirk Blackman
    主  演 纳撒尼尔·布佐尼克 Nathaniel Buzolic
           Emerson Brooks
           布伦·福斯特 Bren Foster
           苍丽娜 Reina Aoi
           Alex Bhat
           Siya Mayola
           Ernest St Claire
           DeVille Vannik
           Brashaad Mayweather
           坦妮娅·雷蒙德 Tania Raymonde
           欧内斯特·圣·克莱尔 Ernest St.Clair


    标  签 2020 | 美国 | 线上

    简  介   

      Dr. Emma Collins and her team are spending their third summer on the island of Little Happy studying the effect of climate change on the great white sharks who come to the nearby nursery every year to give birth. Along with the last two inhabitants of this former fishing village, their peaceful life is disrupted when a "scientific" team led by her ex-boyfriend and marine biologist Richard show up looking for three bull sharks who we soon learn aren't just any bull sharks.
    1. Video
    2. ID                                       : 1
    3. Format                                   : AVC
    4. Format/Info                              : Advanced Video Codec
    5. Format profile                           : High@L4
    6. Format settings                          : CABAC / 4 Ref Frames
    7. Format settings, CABAC                   : Yes
    8. Format settings, Reference frames        : 4 frames
    9. Codec ID                                 : V_MPEG4/ISO/AVC
    10. Duration                                 : 1 h 40 min
    11. Bit rate                                 : 11.5 Mb/s
    12. Width                                    : 1 920 pixels
    13. Height                                   : 800 pixels
    14. Display aspect ratio                     : 2.40:1
    15. Frame rate mode                          : Constant
    16. Frame rate                               : 23.976 (24000/1001/189150) FPS
    17. Color space                              : YUV
    18. Chroma subsampling                       : 4:2:0
    19. Bit depth                                : 8 bits
    20. Scan type                                : Progressive
    21. Bits/(Pixel*Frame)                       : 0.312
    22. Stream size                              : 8.04 GiB (73%)
    23. Title                                    : Deep.Blue.Sea.3.2020.1080p.BluRay.x264.DTS-HD.MA.5.1-FGT
    24. Writing library                          : x264 core 148 r2795M aaa9aa8
    25. Encoding settings                        : cabac=1 / ref=4 / deblock=1:-2:-2 / analyse=0x3:0x113 / me=umh / subme=9 / psy=1 / psy_rd=1.00:0.15 / mixed_ref=1 / me_range=16 / chroma_me=1 / trellis=2 / 8x8dct=1 / cqm=0 / deadzone=21,11 / fast_pskip=1 / chroma_qp_offset=-3 / threads=72 / lookahead_threads=3 / sliced_threads=0 / nr=0 / decimate=1 / interlaced=0 / bluray_compat=0 / constrained_intra=0 / bframes=3 / b_pyramid=2 / b_adapt=1 / b_bias=0 / direct=3 / weightb=1 / open_gop=0 / weightp=2 / keyint=250 / keyint_min=25 / scenecut=40 / intra_refresh=0 / rc_lookahead=50 / rc=2pass / mbtree=1 / bitrate=11500 / ratetol=1.0 / qcomp=0.60 / qpmin=0 / qpmax=69 / qpstep=4 / cplxblur=20.0 / qblur=0.5 / vbv_maxrate=31250 / vbv_bufsize=31250 / nal_hrd=none / filler=0 / ip_ratio=1.40 / aq=1:1.00
    26. Default                                  : Yes
    27. Forced                                   : No

    28. Audio
    29. ID                                       : 2
    30. Format                                   : DTS XLL
    31. Format/Info                              : Digital Theater Systems
    32. Commercial name                          : DTS-HD Master Audio
    33. Codec ID                                 : A_DTS
    34. Duration                                 : 1 h 40 min
    35. Bit rate mode                            : Variable
    36. Bit rate                                 : 4 262 kb/s
    37. Channel(s)                               : 6 channels
    38. Channel layout                           : C L R Ls Rs LFE
    39. Sampling rate                            : 48.0 kHz
    40. Frame rate                               : 93.750 FPS (512 SPF)
    41. Bit depth                                : 24 bits
    42. Compression mode                         : Lossless
    43. Stream size                              : 2.98 GiB (27%)
    44. Title                                    : Deep.Blue.Sea.3.2020.1080p.BluRay.x264.DTS-HD.MA.5.1-FGT
    45. Language                                 : English
    46. Default                                  : Yes
    47. Forced                                   : No

    48. Text #1
    49. ID                                       : 3
    50. Format                                   : UTF-8
    51. Codec ID                                 : S_TEXT/UTF8
    52. Codec ID/Info                            : UTF-8 Plain Text
    53. Duration                                 : 1 h 30 min
    54. Bit rate                                 : 48 b/s
    55. Count of elements                        : 1054
    56. Stream size                              : 32.1 KiB (0%)
    57. Title                                    : English-SRT
    58. Language                                 : English
    59. Default                                  : Yes
    60. Forced                                   : No

    61. Text #2
    62. ID                                       : 4
    63. Format                                   : PGS
    64. Muxing mode                              : zlib
    65. Codec ID                                 : S_HDMV/PGS
    66. Codec ID/Info                            : Picture based subtitle format used on BDs/HD-DVDs
    67. Duration                                 : 1 h 37 min
    68. Bit rate                                 : 32.0 kb/s
    69. Count of elements                        : 2460
    70. Stream size                              : 22.3 MiB (0%)
    71. Title                                    : English-PGS
    72. Language                                 : English
    73. Default                                  : No
    74. Forced                                   : No

    75. Text #3
    76. ID                                       : 5
    77. Format                                   : PGS
    78. Muxing mode                              : zlib
    79. Codec ID                                 : S_HDMV/PGS
    80. Codec ID/Info                            : Picture based subtitle format used on BDs/HD-DVDs
    81. Duration                                 : 1 h 38 min
    82. Bit rate                                 : 26.2 kb/s
    83. Count of elements                        : 2088
    84. Stream size                              : 18.4 MiB (0%)
    85. Title                                    : French-PGS
    86. Language                                 : French
    87. Default                                  : No
    88. Forced                                   : No

    89. Text #4
    90. ID                                       : 6
    91. Format                                   : PGS
    92. Muxing mode                              : zlib
    93. Codec ID                                 : S_HDMV/PGS
    94. Codec ID/Info                            : Picture based subtitle format used on BDs/HD-DVDs
    95. Duration                                 : 1 h 37 min
    96. Bit rate                                 : 34.1 kb/s
    97. Count of elements                        : 2460
    98. Stream size                              : 23.8 MiB (0%)
    99. Title                                    : German-PGS
    100. Language                                 : German
    101. Default                                  : No
    102. Forced                                   : No

    103. Text #5
    104. ID                                       : 7
    105. Format                                   : PGS
    106. Muxing mode                              : zlib
    107. Codec ID                                 : S_HDMV/PGS
    108. Codec ID/Info                            : Picture based subtitle format used on BDs/HD-DVDs
    109. Duration                                 : 1 h 38 min
    110. Bit rate                                 : 28.2 kb/s
    111. Count of elements                        : 2090
    112. Stream size                              : 19.9 MiB (0%)
    113. Title                                    : Spanish-PGS
    114. Language                                 : Spanish
    115. Default                                  : No
    116. Forced                                   : No

    117. Text #6
    118. ID                                       : 8
    119. Format                                   : PGS
    120. Muxing mode                              : zlib
    121. Codec ID                                 : S_HDMV/PGS
    122. Codec ID/Info                            : Picture based subtitle format used on BDs/HD-DVDs
    123. Duration                                 : 1 h 38 min
    124. Bit rate                                 : 24.2 kb/s
    125. Count of elements                        : 2068
    126. Stream size                              : 17.0 MiB (0%)
    127. Title                                    : Danish-PGS
    128. Language                                 : Danish
    129. Default                                  : No
    130. Forced                                   : No

    131. Text #7
    132. ID                                       : 9
    133. Format                                   : PGS
    134. Muxing mode                              : zlib
    135. Codec ID                                 : S_HDMV/PGS
    136. Codec ID/Info                            : Picture based subtitle format used on BDs/HD-DVDs
    137. Duration                                 : 1 h 38 min
    138. Bit rate                                 : 26.8 kb/s
    139. Count of elements                        : 2076
    140. Stream size                              : 18.8 MiB (0%)
    141. Title                                    : Finnish-PGS
    142. Language                                 : Finnish
    143. Default                                  : No
    144. Forced                                   : No

    145. Text #8
    146. ID                                       : 10
    147. Format                                   : PGS
    148. Muxing mode                              : zlib
    149. Codec ID                                 : S_HDMV/PGS
    150. Codec ID/Info                            : Picture based subtitle format used on BDs/HD-DVDs
    151. Duration                                 : 1 h 38 min
    152. Bit rate                                 : 25.2 kb/s
    153. Count of elements                        : 2086
    154. Stream size                              : 17.7 MiB (0%)
    155. Title                                    : Norwegian-PGS
    156. Language                                 : Norwegian
    157. Default                                  : No
    158. Forced                                   : No

    159. Text #9
    160. ID                                       : 11
    161. Format                                   : PGS
    162. Muxing mode                              : zlib
    163. Codec ID                                 : S_HDMV/PGS
    164. Codec ID/Info                            : Picture based subtitle format used on BDs/HD-DVDs
    165. Duration                                 : 1 h 38 min
    166. Bit rate                                 : 28.0 kb/s
    167. Count of elements                        : 2044
    168. Stream size                              : 19.7 MiB (0%)
    169. Title                                    : Swedish-PGS
    170. Language                                 : Swedish
    171. Default                                  : No
    172. Forced                                   : No

    173. Menu
    174. 00:00:00.000                             : en:Chapter 01
    175. 00:09:50.006                             : en:Chapter 02
    176. 00:19:15.154                             : en:Chapter 03
    177. 00:28:50.270                             : en:Chapter 04
    178. 00:38:06.034                             : en:Chapter 05
    179. 00:45:09.290                             : en:Chapter 06
    180. 00:54:28.891                             : en:Chapter 07
    181. 01:04:14.142                             : en:Chapter 08
    182. 01:14:12.406                             : en:Chapter 09
    183. 01:23:10.819                             : en:Chapter 10
    184. 01:32:48.229                             : en:Chapter 11
    复制代码

    深海狂鲨3 Deep.Blue.Sea.3.2020.1080p.BluRay.x264.DTS-HD.MA.5.1-FGT 11.07GB-2.png
    深海狂鲨3 Deep.Blue.Sea.3.2020.1080p.BluRay.x264.DTS-HD.MA.5.1-FGT 11.07GB-3.png


    游客,如果您要查看本帖隐藏内容请回复



    大中午的快困死蓝光君了
    回复

    使用道具 举报

    该用户从未签到

    0

    主题

    1716

    帖子

    1062

    积分

    金牌会员

    Rank: 6Rank: 6

    积分
    1062
    发表于 2021-2-12 14:56:50 | 显示全部楼层
    回复 支持 反对

    使用道具 举报

    该用户从未签到

    0

    主题

    677

    帖子

    10

    积分

    新手上路

    Rank: 1

    积分
    10
    发表于 2021-2-12 15:00:48 | 显示全部楼层
    回复 支持 反对

    使用道具 举报

    该用户从未签到

    0

    主题

    3万

    帖子

    2万

    积分

    论坛元老

    Rank: 8Rank: 8

    积分
    26401
    发表于 2021-2-12 17:22:02 | 显示全部楼层
    回复 支持 反对

    使用道具 举报

    该用户从未签到

    0

    主题

    473

    帖子

    128

    积分

    注册会员

    Rank: 2

    积分
    128
    发表于 2021-2-14 22:00:02 | 显示全部楼层
    楼主太厉害了!楼主,电影应该很好看我觉得蓝光电影下载真是个好地方!
    回复 支持 反对

    使用道具 举报

    该用户从未签到

    0

    主题

    1056

    帖子

    657

    积分

    高级会员

    Rank: 4

    积分
    657
    发表于 2021-2-15 18:42:21 | 显示全部楼层
    回复 支持 反对

    使用道具 举报

    该用户从未签到

    0

    主题

    4081

    帖子

    2334

    积分

    金牌会员

    Rank: 6Rank: 6

    积分
    2334
    发表于 2021-2-15 18:42:31 | 显示全部楼层
    这个帖子不回对不起自己!我想我是一天也不能离开蓝光电影网
    回复 支持 反对

    使用道具 举报

  • TA的每日心情
    郁闷
    2021-2-15 18:42
  • 签到天数: 1 天

    [LV.1]初来乍到

    0

    主题

    2

    帖子

    8

    积分

    新手上路

    Rank: 1

    积分
    8
    发表于 2021-2-15 18:42:50 | 显示全部楼层
    楼主发贴辛苦了,谢谢楼主分享!我觉得蓝光电影网是注册对了!
    回复 支持 反对

    使用道具 举报

    该用户从未签到

    0

    主题

    1万

    帖子

    1万

    积分

    论坛元老

    Rank: 8Rank: 8

    积分
    16181
    发表于 2021-2-16 03:09:53 | 显示全部楼层

    是个好电影!必须要看的!多谢分享!
    回复 支持 反对

    使用道具 举报

    该用户从未签到

    0

    主题

    5428

    帖子

    3498

    积分

    论坛元老

    Rank: 8Rank: 8

    积分
    3498
    发表于 2021-2-16 07:31:49 | 显示全部楼层
    回复 支持 反对

    使用道具 举报

    懒得打字嘛,点击右侧快捷回复 【右侧内容,后台自定义】
    您需要登录后才可以回帖 登录 | 立即注册

    本版积分规则

    郑重声明,本站所有作品片源来自互联网公开渠道,均为网友上传交流学习,影视版权均归原电影公司所有,如有侵犯版权,请与 2322694662@qq.com 联系,我们将立即删除。

    小黑屋|手机版|Archiver|百度统计|投诉|蓝光电影下载

    GMT+8, 2021-7-27 17:12 , Processed in 0.064683 second(s), 33 queries , Gzip On, MemCached On.

    Powered by Discuz! X3.4

    © 2001-2013 Comsenz Inc.

    快速回复 返回顶部 返回列表