快捷导航
查看: 2869|回复: 20

人生七年3/21岁起 21.Up.1977.1080p.BluRay.x264-USURY 6.56GB

[复制链接]
  • TA的每日心情
    开心
    昨天 23:39
  • 签到天数: 265 天

    [LV.8]以坛为家I

    1万

    主题

    713

    回帖

    20万

    积分

    管理员

    蓝光君

    Rank: 9Rank: 9Rank: 9

    积分
    207918

    活跃会员热心会员推广达人突出贡献优秀版主荣誉管理论坛元老

    QQ
    发表于 2021-2-12 16:18:07 | 显示全部楼层 |阅读模式
    1. 帖子完整标题:人生七年3/21岁起 21.Up.1977.1080p.BluRay.x264-USURY 6.56GB
    复制代码
    人生七年3/21岁起 21.Up.1977.1080p.BluRay.x264-USURY 6.56GB-1.jpeg


    译  名 人生七年3 / 21岁起 / 人生七年第三季 / 人生七载之当我二十一
    片  名 21 Up
    年  代 1977
    产  地 英国
    类  别 纪录片 / 传记
    语  言 英语
    上映日期 1977-05-09(英国)
    IMDb评分  8.1/10 from 2383 users
    IMDb链接  https://www.imdb.com/title/tt0075610
    豆瓣评分 9.3/10 from 8179 users
    豆瓣链接 https://movie.douban.com/subject/2283680/
    片  长 100分钟
    导  演 迈克尔·艾普特 Michael Apted
    主  演 Bruce Balden
           Jacqueline Bassett
           Symon Basterfield
           Andrew Brackfield
           John Brisby


    标  签 纪录片 | 英国 | 人生 | BBC | 成长 | 人生七年 | 1977 | 英国电影

    简  介   

      本部纪录片是导演迈克尔·艾普特从1964年开始拍摄的纪录片系列的第三部。迈克尔·艾普特在1964年为英国BBC电视台拍摄了记录片《7 Up》,采访来自英国不同阶层的十四个七岁的小孩子,他们有的来自孤儿院有的是上层社会的小孩。此后每隔七年,艾普特都会重新采访当年的这些孩子,倾听他们的梦想,畅谈他们的生活。正值青春年华的孩子们,已经长到21岁。当年导演的初衷是批判英国社会阶层的不可改变性,穷人的孩子还是穷人,富人的孩子还是富人。在时隔数十年之后,这一点初得印证。可生命的无偿又岂会就此止步。
      本部系列纪录片,跨越半个世纪,史无前例地记录了真人版的“人生七年”。
    1. Video
    2. ID                                       : 1
    3. Format                                   : AVC
    4. Format/Info                              : Advanced Video Codec
    5. Format profile                           : High@L4
    6. Format settings                          : CABAC / 4 Ref Frames
    7. Format settings, CABAC                   : Yes
    8. Format settings, Reference frames        : 4 frames
    9. Codec ID                                 : V_MPEG4/ISO/AVC
    10. Duration                                 : 1 h 39 min
    11. Bit rate                                 : 8 895 kb/s
    12. Width                                    : 1 440 pixels
    13. Height                                   : 1 080 pixels
    14. Display aspect ratio                     : 4:3
    15. Frame rate mode                          : Constant
    16. Frame rate                               : 25.000 FPS
    17. Color space                              : YUV
    18. Chroma subsampling                       : 4:2:0
    19. Bit depth                                : 8 bits
    20. Scan type                                : Progressive
    21. Bits/(Pixel*Frame)                       : 0.229
    22. Stream size                              : 6.20 GiB (95%)
    23. Writing library                          : x264 core 157 r2969 d4099dd
    24. Encoding settings                        : cabac=1 / ref=4 / deblock=1:-3:-3 / analyse=0x3:0x133 / me=umh / subme=9 / psy=1 / psy_rd=1.00:0.00 / mixed_ref=1 / me_range=16 / chroma_me=1 / trellis=2 / 8x8dct=1 / cqm=0 / deadzone=21,11 / fast_pskip=0 / chroma_qp_offset=-2 / threads=18 / lookahead_threads=1 / sliced_threads=0 / nr=0 / decimate=1 / interlaced=0 / bluray_compat=0 / constrained_intra=0 / bframes=3 / b_pyramid=2 / b_adapt=1 / b_bias=0 / direct=3 / weightb=1 / open_gop=0 / weightp=2 / keyint=250 / keyint_min=25 / scenecut=40 / intra_refresh=0 / rc_lookahead=50 / rc=2pass / mbtree=1 / bitrate=8895 / ratetol=1.0 / qcomp=0.60 / qpmin=0 / qpmax=69 / qpstep=4 / cplxblur=20.0 / qblur=0.5 / ip_ratio=1.40 / aq=1:1.00
    25. Language                                 : English
    26. Default                                  : Yes
    27. Forced                                   : No

    28. Audio
    29. ID                                       : 2
    30. Format                                   : FLAC
    31. Format/Info                              : Free Lossless Audio Codec
    32. Codec ID                                 : A_FLAC
    33. Duration                                 : 1 h 39 min
    34. Bit rate mode                            : Variable
    35. Bit rate                                 : 504 kb/s
    36. Channel(s)                               : 2 channels
    37. Channel layout                           : L R
    38. Sampling rate                            : 48.0 kHz
    39. Frame rate                               : 11.719 FPS (4096 SPF)
    40. Bit depth                                : 16 bits
    41. Compression mode                         : Lossless
    42. Stream size                              : 360 MiB (5%)
    43. Writing library                          : libFLAC 1.2.1 (UTC 2007-09-17)
    44. Language                                 : English
    45. Default                                  : Yes
    46. Forced                                   : No

    47. Text #1
    48. ID                                       : 3
    49. Format                                   : UTF-8
    50. Codec ID                                 : S_TEXT/UTF8
    51. Codec ID/Info                            : UTF-8 Plain Text
    52. Duration                                 : 1 h 38 min
    53. Bit rate                                 : 102 b/s
    54. Count of elements                        : 2165
    55. Stream size                              : 74.7 KiB (0%)
    56. Title                                    : English
    57. Language                                 : English
    58. Default                                  : No
    59. Forced                                   : No

    60. Text #2
    61. ID                                       : 4
    62. Format                                   : UTF-8
    63. Codec ID                                 : S_TEXT/UTF8
    64. Codec ID/Info                            : UTF-8 Plain Text
    65. Duration                                 : 1 h 39 min
    66. Bit rate                                 : 107 b/s
    67. Count of elements                        : 2205
    68. Stream size                              : 78.0 KiB (0%)
    69. Title                                    : English SDH
    70. Language                                 : English
    71. Default                                  : No
    72. Forced                                   : No

    73. Menu
    74. 00:00:00.000                             : en:00:00:00.000
    75. 00:14:30.240                             : en:00:14:30.240
    76. 00:32:22.560                             : en:00:32:22.560
    77. 00:45:01.640                             : en:00:45:01.640
    78. 01:00:50.400                             : en:01:00:50.400
    79. 01:13:42.720                             : en:01:13:42.720
    80. 01:30:13.440                             : en:01:30:13.440
    复制代码

    人生七年3/21岁起 21.Up.1977.1080p.BluRay.x264-USURY 6.56GB-2.jpeg
    游客,如果您要查看本帖隐藏内容请回复





    大咖网站我来了!
    回复

    使用道具 举报

  • TA的每日心情
    慵懒
    2022-9-15 21:40
  • 签到天数: 1 天

    [LV.1]初来乍到

    0

    主题

    2万

    回帖

    2万

    积分

    论坛元老

    Rank: 8Rank: 8

    积分
    29203
    发表于 2021-2-21 19:23:38 | 显示全部楼层
    支持楼主大哥,谢谢楼主

    点评

    海!外直播 bitly.net/npppn 禁闻视频 bitly.net/jj7777 男子带11罐奶粉过关被抓。我活了几十年,带白粉被抓的见过不少,但是带奶粉被抓还真没见识过。郑渊洁:卖坏奶粉的不坐牢,买好奶粉的坐牢,童话故事都不敢这么   发表于 6 天前
    回复 支持 反对

    使用道具 举报

  • TA的每日心情
    奋斗
    2022-5-17 04:04
  • 签到天数: 1 天

    [LV.1]初来乍到

    0

    主题

    6720

    回帖

    6884

    积分

    论坛元老

    Rank: 8Rank: 8

    积分
    6884
    发表于 2021-2-21 19:23:53 | 显示全部楼层
    这个帖子不回对不起自己!我想我是一天也不能离开蓝光电影网
    回复 支持 反对

    使用道具 举报

    该用户从未签到

    0

    主题

    951

    回帖

    984

    积分

    高级会员

    Rank: 4

    积分
    984
    发表于 2021-2-27 12:46:01 | 显示全部楼层
    回复 支持 反对

    使用道具 举报

  • TA的每日心情
    慵懒
    2022-9-15 21:40
  • 签到天数: 1 天

    [LV.1]初来乍到

    0

    主题

    2万

    回帖

    2万

    积分

    论坛元老

    Rank: 8Rank: 8

    积分
    29203
    发表于 2021-3-2 16:47:01 | 显示全部楼层
    回复 支持 反对

    使用道具 举报

  • TA的每日心情
    奋斗
    2023-7-9 14:14
  • 签到天数: 2 天

    [LV.1]初来乍到

    0

    主题

    1万

    回帖

    1万

    积分

    论坛元老

    Rank: 8Rank: 8

    积分
    11640
    发表于 2021-3-5 18:49:41 | 显示全部楼层
    回复 支持 反对

    使用道具 举报

  • TA的每日心情
    奋斗
    2023-7-9 14:14
  • 签到天数: 2 天

    [LV.1]初来乍到

    0

    主题

    1万

    回帖

    1万

    积分

    论坛元老

    Rank: 8Rank: 8

    积分
    11640
    发表于 2021-3-12 00:44:53 | 显示全部楼层
    回复 支持 反对

    使用道具 举报

    该用户从未签到

    0

    主题

    947

    回帖

    992

    积分

    高级会员

    Rank: 4

    积分
    992
    发表于 2021-3-12 13:36:17 | 显示全部楼层

    非常精彩的电影,下来收藏,感谢楼主
    回复 支持 反对

    使用道具 举报

    该用户从未签到

    0

    主题

    6372

    回帖

    6921

    积分

    论坛元老

    Rank: 8Rank: 8

    积分
    6921
    发表于 2021-3-18 21:47:18 | 显示全部楼层

    是个好电影!必须要看的!多谢分享!
    回复 支持 反对

    使用道具 举报

  • TA的每日心情
    擦汗
    2021-6-18 00:46
  • 签到天数: 8 天

    [LV.3]偶尔看看II

    1

    主题

    19

    回帖

    76

    积分

    永久VIP

    积分
    76
    发表于 2021-6-10 13:06:35 | 显示全部楼层
    回复 支持 反对

    使用道具 举报

    懒得打字嘛,点击右侧快捷回复 【右侧内容,后台自定义】
    您需要登录后才可以回帖 登录 | 立即注册

    本版积分规则

    郑重声明,本站所有作品片源来自互联网公开渠道,均为网友上传交流学习,影视版权均归原电影公司所有,如有侵犯版权,请与 2322694662@qq.com 联系,我们将立即删除。

    小黑屋|手机版|Archiver|投诉|51la|蓝光电影下载

    返回顶部
    x

    客服微信扫码添加咨询

    GMT+8, 2024-6-16 03:27 , Processed in 0.141811 second(s), 41 queries , Gzip On.

    Powered by Discuz! X3.4

    © 2001-2013 Comsenz Inc.

    快速回复 返回顶部 返回列表