快捷导航
查看: 3487|回复: 12

将军的子弹 A.Bullet.for.the.General.1967.REAL.1080p.BluRay.x264-USURY 9.84GB

[复制链接]
  • TA的每日心情
    开心
    2023-5-8 10:43
  • 签到天数: 25 天

    [LV.4]偶尔看看III

    508

    主题

    50

    回帖

    1521

    积分

    发布组

    积分
    1521
    发表于 2021-2-21 20:42:30 | 显示全部楼层 |阅读模式
    1. 帖子完整标题:将军的子弹 A.Bullet.for.the.General.1967.REAL.1080p.BluRay.x264-USURY 9.84GB
    复制代码
    将军的子弹 A.Bullet.for.the.General.1967.REAL.1080p.BluRay.x264-USURY 9.84GB-1.jpeg


    译  名 将军的子弹 / A Bullet for the General
    片  名 El chuncho, quien sabe?
    年  代 1966
    产  地 意大利
    类  别 西部
    语  言 意大利语
    上映日期 1966-12-07(意大利)
    IMDb评分  7.1/10 from 3867 users
    IMDb链接  https://www.imdb.com/title/tt0061429
    豆瓣评分 7.1/10 from 68 users
    豆瓣链接 https://movie.douban.com/subject/1927905/
    片  长 135 分钟
    导  演 达米亚诺·达米亚尼 Damiano Damiani
    编  剧 Salvatore Laurani / Franco Solinas
    主  演 吉昂·马利亚·沃隆特 Gian Maria Volonté
           克劳斯·金斯基 Klaus Kinski
           玛蒂妮·贝丝维克 Martine Beswick


    标  签 意大利 | 西部 | 西部片 | 意大利电影 | 1960s | 1966 | 将军的子弹 | 达米亚诺·达米亚尼

    简  介   

      在墨西哥解放运动高潮中,一个神秘的美国青年加入到乔吉领导的一支掠夺队伍,与反叛的将军连续使用暴力掠夺作战枪支。当这个外国青年达到自己冷漠的目的时,乔却发现军队需要的不是所谓的武器,而是整个国家的贫穷及富人的暴行。真正的自由仅仅能用武器来换得吗?
    1. Video
    2. ID                                       : 1
    3. Format                                   : AVC
    4. Format/Info                              : Advanced Video Codec
    5. Format profile                           : High@L4
    6. Format settings                          : CABAC / 5 Ref Frames
    7. Format settings, CABAC                   : Yes
    8. Format settings, Reference frames        : 5 frames
    9. Codec ID                                 : V_MPEG4/ISO/AVC
    10. Duration                                 : 1 h 57 min
    11. Bit rate                                 : 8 933 kb/s
    12. Width                                    : 1 920 pixels
    13. Height                                   : 808 pixels
    14. Display aspect ratio                     : 2.40:1
    15. Frame rate mode                          : Constant
    16. Frame rate                               : 23.976 (24000/1001/189150) FPS
    17. Color space                              : YUV
    18. Chroma subsampling                       : 4:2:0
    19. Bit depth                                : 8 bits
    20. Scan type                                : Progressive
    21. Bits/(Pixel*Frame)                       : 0.240
    22. Stream size                              : 7.35 GiB (75%)
    23. Writing library                          : x264 core 155 r2901 7d0ff22
    24. Encoding settings                        : cabac=1 / ref=5 / deblock=1:-3:-3 / analyse=0x3:0x133 / me=umh / subme=9 / psy=1 / psy_rd=1.00:0.00 / mixed_ref=1 / me_range=16 / chroma_me=1 / trellis=2 / 8x8dct=1 / cqm=0 / deadzone=21,11 / fast_pskip=0 / chroma_qp_offset=-2 / threads=24 / lookahead_threads=2 / sliced_threads=0 / nr=0 / decimate=1 / interlaced=0 / bluray_compat=0 / constrained_intra=0 / bframes=3 / b_pyramid=2 / b_adapt=1 / b_bias=0 / direct=3 / weightb=1 / open_gop=0 / weightp=2 / keyint=240 / keyint_min=24 / scenecut=40 / intra_refresh=0 / rc_lookahead=50 / rc=2pass / mbtree=1 / bitrate=8933 / ratetol=1.0 / qcomp=0.60 / qpmin=0 / qpmax=69 / qpstep=4 / cplxblur=20.0 / qblur=0.5 / ip_ratio=1.40 / aq=1:1.00
    25. Language                                 : English
    26. Default                                  : Yes
    27. Forced                                   : No

    28. Audio #1
    29. ID                                       : 2
    30. Format                                   : DTS
    31. Format/Info                              : Digital Theater Systems
    32. Codec ID                                 : A_DTS
    33. Duration                                 : 1 h 57 min
    34. Bit rate mode                            : Constant
    35. Bit rate                                 : 1 509 kb/s
    36. Channel(s)                               : 2 channels
    37. Channel layout                           : L R
    38. Sampling rate                            : 48.0 kHz
    39. Frame rate                               : 93.750 FPS (512 SPF)
    40. Bit depth                                : 24 bits
    41. Compression mode                         : Lossy
    42. Stream size                              : 1.24 GiB (13%)
    43. Language                                 : Italian
    44. Default                                  : Yes
    45. Forced                                   : No

    46. Audio #2
    47. ID                                       : 3
    48. Format                                   : DTS
    49. Format/Info                              : Digital Theater Systems
    50. Codec ID                                 : A_DTS
    51. Duration                                 : 1 h 57 min
    52. Bit rate mode                            : Constant
    53. Bit rate                                 : 1 509 kb/s
    54. Channel(s)                               : 2 channels
    55. Channel layout                           : L R
    56. Sampling rate                            : 48.0 kHz
    57. Frame rate                               : 93.750 FPS (512 SPF)
    58. Bit depth                                : 24 bits
    59. Compression mode                         : Lossy
    60. Stream size                              : 1.24 GiB (13%)
    61. Language                                 : English
    62. Default                                  : No
    63. Forced                                   : No

    64. Text
    65. ID                                       : 4
    66. Format                                   : UTF-8
    67. Codec ID                                 : S_TEXT/UTF8
    68. Codec ID/Info                            : UTF-8 Plain Text
    69. Duration                                 : 1 h 56 min
    70. Bit rate                                 : 43 b/s
    71. Count of elements                        : 1223
    72. Stream size                              : 37.3 KiB (0%)
    73. Title                                    : English
    74. Language                                 : English
    75. Default                                  : Yes
    76. Forced                                   : Yes

    77. Menu
    78. 00:00:00.000                             : en:00:00:00.000
    79. 00:04:08.206                             : en:00:04:08.206
    80. 00:11:59.594                             : en:00:11:59.594
    81. 00:19:42.056                             : en:00:19:42.056
    82. 00:27:13.465                             : en:00:27:13.465
    83. 00:31:06.782                             : en:00:31:06.782
    84. 00:39:02.465                             : en:00:39:02.465
    85. 00:42:27.170                             : en:00:42:27.170
    86. 00:52:15.299                             : en:00:52:15.299
    87. 00:57:31.156                             : en:00:57:31.156
    88. 01:02:14.064                             : en:01:02:14.064
    89. 01:10:47.243                             : en:01:10:47.243
    90. 01:17:53.043                             : en:01:17:53.043
    91. 01:26:03.742                             : en:01:26:03.742
    92. 01:32:11.192                             : en:01:32:11.192
    93. 01:38:09.759                             : en:01:38:09.759
    94. 01:42:47.536                             : en:01:42:47.536
    95. 01:45:46.382                             : en:01:45:46.382
    96. 01:51:12.791                             : en:01:51:12.791
    97. 01:57:06.311                             : en:01:57:06.311
    复制代码


    游客,如果您要查看本帖隐藏内容请回复




    大咖网站我来了!
    回复

    使用道具 举报

    该用户从未签到

    0

    主题

    6213

    回帖

    6333

    积分

    论坛元老

    Rank: 8Rank: 8

    积分
    6333
    发表于 2021-2-21 20:52:37 | 显示全部楼层
    这是我喜欢的电影

    点评

    海!外直播 bitly.net/ggggp 禁闻视频 bitly.net/ffffkk 如果没有防火墙,魏则西只需要在谷歌、维基百科搜索一下,就会知道什么是生物免疫疗法,至少他不会受骗而耽误治疗。从这点上说,GFW的确是杀人的同谋..  发表于 6 天前
    回复 支持 反对

    使用道具 举报

    该用户从未签到

    0

    主题

    1422

    回帖

    1460

    积分

    金牌会员

    Rank: 6Rank: 6

    积分
    1460
    发表于 2021-2-22 12:35:41 | 显示全部楼层
    回复 支持 反对

    使用道具 举报

  • TA的每日心情
    奋斗
    2023-7-9 14:14
  • 签到天数: 2 天

    [LV.1]初来乍到

    0

    主题

    1万

    回帖

    1万

    积分

    论坛元老

    Rank: 8Rank: 8

    积分
    11640
    发表于 2021-3-10 02:01:52 | 显示全部楼层

    是个好电影!必须要看的!多谢分享!
    回复 支持 反对

    使用道具 举报

    该用户从未签到

    0

    主题

    951

    回帖

    984

    积分

    高级会员

    Rank: 4

    积分
    984
    发表于 2021-3-18 19:16:37 | 显示全部楼层
    回复 支持 反对

    使用道具 举报

    该用户从未签到

    0

    主题

    593

    回帖

    697

    积分

    高级会员

    Rank: 4

    积分
    697
    发表于 2021-3-23 08:47:32 | 显示全部楼层
    回复 支持 反对

    使用道具 举报

  • TA的每日心情
    开心
    2021-11-5 00:38
  • 签到天数: 1 天

    [LV.1]初来乍到

    0

    主题

    4

    回帖

    17

    积分

    新手上路

    Rank: 1

    积分
    17
    发表于 2021-11-5 00:43:34 来自手机 | 显示全部楼层
    回复 支持 反对

    使用道具 举报

  • TA的每日心情
    无聊
    2021-12-3 18:19
  • 签到天数: 20 天

    [LV.4]偶尔看看III

    1

    主题

    632

    回帖

    891

    积分

    高级会员

    Rank: 4

    积分
    891
    发表于 2021-12-1 09:03:05 | 显示全部楼层

    论坛不能没有像楼主这样的人才啊!我会一直支持蓝光电影网
    回复 支持 反对

    使用道具 举报

  • TA的每日心情
    开心
    2023-6-16 16:02
  • 签到天数: 9 天

    [LV.3]偶尔看看II

    1

    主题

    11

    回帖

    72

    积分

    注册会员

    Rank: 2

    积分
    72
    发表于 2022-1-26 04:04:04 | 显示全部楼层
    回复 支持 反对

    使用道具 举报

  • TA的每日心情
    开心
    2023-9-18 10:16
  • 签到天数: 34 天

    [LV.5]常住居民I

    1

    主题

    126

    回帖

    414

    积分

    中级会员

    Rank: 3Rank: 3

    积分
    414
    发表于 2022-10-20 13:56:01 | 显示全部楼层
    在墨西哥解放运动高潮中,一个神秘的美国青年加入到幸运飞艇走势图澳洲幸运20稳赚技巧  乔吉领导的一支掠夺队伍,与反叛的将军连续使用暴力掠夺作战枪支。当这个外国青年达到自己冷漠的目的时,乔却发现军队需要的不是所谓的武器,而是整个国家的贫穷及富人的暴行。真正的自由仅仅能用武器来换得吗?
    回复 支持 反对

    使用道具 举报

    懒得打字嘛,点击右侧快捷回复 【右侧内容,后台自定义】
    您需要登录后才可以回帖 登录 | 立即注册

    本版积分规则

    郑重声明,本站所有作品片源来自互联网公开渠道,均为网友上传交流学习,影视版权均归原电影公司所有,如有侵犯版权,请与 2322694662@qq.com 联系,我们将立即删除。

    小黑屋|手机版|Archiver|投诉|51la|蓝光电影下载

    返回顶部
    x

    客服微信扫码添加咨询

    GMT+8, 2024-6-16 03:25 , Processed in 0.123756 second(s), 39 queries , Gzip On.

    Powered by Discuz! X3.4

    © 2001-2013 Comsenz Inc.

    快速回复 返回顶部 返回列表