快捷导航
查看: 30|回复: 12

[喜剧] 一个忠诚的男人 A.Faithful.Man.2018.1080p.BluRay.x264-USURY 6.56GB

[复制链接]
  • TA的每日心情
    开心
    昨天 21:17
  • 签到天数: 14 天

    [LV.3]偶尔看看II

    441

    主题

    479

    帖子

    1104

    积分

    发布组

    积分
    1104
    发表于 6 天前 | 显示全部楼层 |阅读模式
    1. 帖子完整标题:一个忠诚的男人 A.Faithful.Man.2018.1080p.BluRay.x264-USURY 6.56GB
    复制代码
    一个忠诚的男人 A.Faithful.Man.2018.1080p.BluRay.x264-USURY 6.56GB-1.jpeg


    译  名 一个忠诚的男人 / A Faithful Man / 忠诚的男人 / 爱情零极限(台) / 爱我别忠诚(港)
    片  名 L'homme fidèle
    年  代 2018
    产  地 法国
    类  别 剧情 / 喜剧 / 爱情
    语  言 法语
    上映日期 2018-09-09(多伦多电影节) / 2018-12-26(法国)
    IMDb评分  6.2/10 from 2539 users
    IMDb链接  https://www.imdb.com/title/tt8075202
    豆瓣评分 6.7/10 from 911 users
    豆瓣链接 https://movie.douban.com/subject/28510423/
    片  长 75分钟
    导  演 路易·加瑞尔 Louis Garrel
    编  剧 让-克洛德·卡里埃 Jean-Claude Carrière / 路易·加瑞尔 Louis Garrel
    主  演 路易·加瑞尔 Louis Garrel
           莱蒂西娅·卡斯塔 Laetitia Casta
           莉莉-罗丝·德普 Lily-Rose Melody Depp
           约瑟夫·恩格尔 Joseph Engel
           黛安娜·科维尔 Diane Courseille
           维拉迪斯拉夫·加拉德 Vladislav Galard
           巴卡里·桑加雷 Bakary Sangaré
           凯拉·卡瑞尔 Kiara Carrière
           达利·本萨拉赫 Dali Benssalah
           亚瑟·伊瓜尔 Arthur Igual


    标  签 法国 | 爱情 | 2018 | 喜剧 | 文艺 | 剧情 | 独立电影 | LilyRoseDepp

    简  介   

      亚博(路易斯·加瑞尔 Louis Garrel 饰)和玛丽安(蕾蒂莎·科斯塔 Laetitia Casta 饰)相识于大学校园之中,情窦初开的两人一见钟情,很快就走到了一起,并且搬到了同一屋檐下,开始了同居生活。一天,玛丽安告诉亚博自己怀孕了,还没等亚博开心完,玛丽安爆出了一个惊人的消息,她腹中的孩子不是亚博的,而是亚博最好的朋友保罗的。
      愤怒又震惊的亚博选择离开了玛丽安,没过多久,玛丽安就和保罗结婚了。从此,这几个人再也没有联系过,但这段感情带给亚博的伤害却伴随了他一生。一晃眼九年过去,一天,亚博意外的收到了保罗的死讯。

    获奖情况  

      第44届法国凯撒电影奖(2019)
      最佳新人女演员(提名) 莉莉-罗丝·德普

      第66届圣塞巴斯蒂安国际电影节(2018)
      金贝壳奖(提名) 路易·加瑞尔
      最佳剧本 路易·加瑞尔 / 让-克洛德·卡里埃
    1. Video
    2. ID                                       : 1
    3. Format                                   : AVC
    4. Format/Info                              : Advanced Video Codec
    5. Format profile                           : High@L4
    6. Format settings                          : CABAC / 5 Ref Frames
    7. Format settings, CABAC                   : Yes
    8. Format settings, Reference frames        : 5 frames
    9. Codec ID                                 : V_MPEG4/ISO/AVC
    10. Duration                                 : 1 h 15 min
    11. Bit rate                                 : 10.9 Mb/s
    12. Width                                    : 1 920 pixels
    13. Height                                   : 808 pixels
    14. Display aspect ratio                     : 2.40:1
    15. Frame rate mode                          : Constant
    16. Frame rate                               : 23.976 (24000/1001/189150) FPS
    17. Color space                              : YUV
    18. Chroma subsampling                       : 4:2:0
    19. Bit depth                                : 8 bits
    20. Scan type                                : Progressive
    21. Bits/(Pixel*Frame)                       : 0.294
    22. Stream size                              : 5.76 GiB (88%)
    23. Writing library                          : x264 core 157 r2969 d4099dd
    24. Encoding settings                        : cabac=1 / ref=5 / deblock=1:-3:-3 / analyse=0x3:0x133 / me=umh / subme=9 / psy=1 / psy_rd=1.00:0.00 / mixed_ref=1 / me_range=16 / chroma_me=1 / trellis=2 / 8x8dct=1 / cqm=0 / deadzone=21,11 / fast_pskip=0 / chroma_qp_offset=-2 / threads=18 / lookahead_threads=1 / sliced_threads=0 / nr=0 / decimate=1 / interlaced=0 / bluray_compat=0 / constrained_intra=0 / bframes=3 / b_pyramid=2 / b_adapt=1 / b_bias=0 / direct=3 / weightb=1 / open_gop=0 / weightp=2 / keyint=240 / keyint_min=24 / scenecut=40 / intra_refresh=0 / rc_lookahead=50 / rc=2pass / mbtree=1 / bitrate=10918 / ratetol=1.0 / qcomp=0.60 / qpmin=0 / qpmax=69 / qpstep=4 / cplxblur=20.0 / qblur=0.5 / ip_ratio=1.40 / aq=1:1.00
    25. Language                                 : English
    26. Default                                  : Yes
    27. Forced                                   : No

    28. Audio
    29. ID                                       : 2
    30. Format                                   : DTS
    31. Format/Info                              : Digital Theater Systems
    32. Codec ID                                 : A_DTS
    33. Duration                                 : 1 h 15 min
    34. Bit rate mode                            : Constant
    35. Bit rate                                 : 1 509 kb/s
    36. Channel(s)                               : 6 channels
    37. Channel layout                           : C L R Ls Rs LFE
    38. Sampling rate                            : 48.0 kHz
    39. Frame rate                               : 93.750 FPS (512 SPF)
    40. Bit depth                                : 24 bits
    41. Compression mode                         : Lossy
    42. Stream size                              : 815 MiB (12%)
    43. Language                                 : French
    44. Default                                  : Yes
    45. Forced                                   : No

    46. Text
    47. ID                                       : 3
    48. Format                                   : UTF-8
    49. Codec ID                                 : S_TEXT/UTF8
    50. Codec ID/Info                            : UTF-8 Plain Text
    51. Duration                                 : 1 h 14 min
    52. Bit rate                                 : 48 b/s
    53. Count of elements                        : 1055
    54. Stream size                              : 26.3 KiB (0%)
    55. Title                                    : English
    56. Language                                 : English
    57. Default                                  : Yes
    58. Forced                                   : Yes

    59. Menu
    60. 00:00:00.000                             : en:00:00:00.000
    61. 00:09:08.840                             : en:00:09:08.840
    62. 00:17:54.156                             : en:00:17:54.156
    63. 00:22:50.995                             : en:00:22:50.995
    64. 00:29:49.079                             : en:00:29:49.079
    65. 00:36:50.250                             : en:00:36:50.250
    66. 00:42:26.335                             : en:00:42:26.335
    67. 00:49:17.496                             : en:00:49:17.496
    68. 00:59:14.718                             : en:00:59:14.718
    69. 01:06:59.265                             : en:01:06:59.265
    复制代码

    一个忠诚的男人 A.Faithful.Man.2018.1080p.BluRay.x264-USURY 6.56GB-2.jpeg
    本帖隐藏的内容需要注册登陆才可浏览,您需要注册才可浏览,点击这里注册





    回复

    使用道具 举报

    该用户从未签到

    0

    主题

    328

    帖子

    291

    积分

    中级会员

    Rank: 3Rank: 3

    积分
    291
    发表于 6 天前 | 显示全部楼层
    回复 支持 反对

    使用道具 举报

    该用户从未签到

    0

    主题

    2527

    帖子

    2334

    积分

    金牌会员

    Rank: 6Rank: 6

    积分
    2334
    发表于 6 天前 | 显示全部楼层
    回复 支持 反对

    使用道具 举报

    该用户从未签到

    0

    主题

    1466

    帖子

    1259

    积分

    金牌会员

    Rank: 6Rank: 6

    积分
    1259
    发表于 6 天前 | 显示全部楼层
    回复 支持 反对

    使用道具 举报

    该用户从未签到

    0

    主题

    321

    帖子

    352

    积分

    中级会员

    Rank: 3Rank: 3

    积分
    352
    发表于 6 天前 | 显示全部楼层
    回复 支持 反对

    使用道具 举报

    该用户从未签到

    0

    主题

    2万

    帖子

    1万

    积分

    论坛元老

    Rank: 8Rank: 8

    积分
    17501
    发表于 6 天前 | 显示全部楼层
    感谢楼主的无私分享!要想蓝光高清电影网好 就靠你我他
    回复 支持 反对

    使用道具 举报

    该用户从未签到

    0

    主题

    2万

    帖子

    1万

    积分

    论坛元老

    Rank: 8Rank: 8

    积分
    17501
    发表于 5 天前 | 显示全部楼层

    非常精彩的电影,下来收藏,感谢楼主
    回复 支持 反对

    使用道具 举报

    该用户从未签到

    0

    主题

    2万

    帖子

    1万

    积分

    论坛元老

    Rank: 8Rank: 8

    积分
    17501
    发表于 5 天前 | 显示全部楼层
    回复 支持 反对

    使用道具 举报

    该用户从未签到

    0

    主题

    51

    帖子

    6

    积分

    新手上路

    Rank: 1

    积分
    6
    发表于 5 天前 | 显示全部楼层
    回复 支持 反对

    使用道具 举报

    该用户从未签到

    0

    主题

    1233

    帖子

    1062

    积分

    金牌会员

    Rank: 6Rank: 6

    积分
    1062
    发表于 5 天前 | 显示全部楼层
    回复 支持 反对

    使用道具 举报

    懒得打字嘛,点击右侧快捷回复 【右侧内容,后台自定义】
    您需要登录后才可以回帖 登录 | 立即注册

    本版积分规则

    郑重声明,本站所有作品片源来自互联网公开渠道,均为网友上传交流学习,影视版权均归原电影公司所有,如有侵犯版权,请与 2322694662@qq.com 联系,我们将立即删除。

    小黑屋|手机版|Archiver|百度统计|投诉|蓝光电影下载

    GMT+8, 2021-2-27 05:01 , Processed in 0.050824 second(s), 23 queries , Gzip On, MemCached On.

    Powered by Discuz! X3.4

    © 2001-2013 Comsenz Inc.

    快速回复 返回顶部 返回列表