快捷导航
查看: 3917|回复: 31

[喜剧] 绝命战警/潜在威力 Cyberflic.1997.DUBBED.720p.BluRay.x264-GUACAMOLE 4.00GB

[复制链接]
  • TA的每日心情

    3 天前
  • 签到天数: 109 天

    [LV.6]常住居民II

    2077

    主题

    2188

    帖子

    4739

    积分

    发布组

    积分
    4739
    发表于 2021-2-21 21:54:28 | 显示全部楼层 |阅读模式
    1. 帖子完整标题:绝命战警/潜在威力 Cyberflic.1997.DUBBED.720p.BluRay.x264-GUACAMOLE 4.00GB
    复制代码
    绝命战警/潜在威力 Cyberflic.1997.DUBBED.720p.BluRay.x264-GUACAMOLE 4.00GB-1.jpeg


    译  名 绝命战警 / 潜在威力
    片  名 Cyberflic
    年  代 1997
    产  地 法国 / 意大利
    类  别 喜剧 / 犯罪
    语  言 意大利语
    上映日期 1997-08-25
    IMDb评分  4.7/10 from 363 users
    IMDb链接  https://www.imdb.com/title/tt0275287
    豆瓣评分 0/10 from 0 users
    豆瓣链接 https://movie.douban.com/subject/1298110/
    片  长 Argentina: 90 分钟
    导  演 Antonio Margheriti
    编  剧 布鲁诺·科尔布奇 Bruno Corbucci / Ferdie Pacheco
    主  演 Terence Hill


    标  签 意大利 | 喜剧

    简  介   

      为破获黑帮贩卖军火一案,神探斯基姆斯奉命回到阔别已久的迈阿密警局。由于任务机密,斯基姆斯请求精通电脑的小女孩莉莉协助工作。经过大胆细致的调查,斯基姆斯发现黑帮头目阿克塞尔正在推销一种新型炸药,于是他与老搭档迈克深入虎穴调查取证,不幸落入早有防范的阿克塞尔设下的圈套......
    1. Video
    2. ID                                       : 1
    3. Format                                   : AVC
    4. Format/Info                              : Advanced Video Codec
    5. Format profile                           : High@L4
    6. Format settings                          : CABAC / 8 Ref Frames
    7. Format settings, CABAC                   : Yes
    8. Format settings, Reference frames        : 8 frames
    9. Codec ID                                 : V_MPEG4/ISO/AVC
    10. Duration                                 : 1 h 29 min
    11. Bit rate                                 : 5 028 kb/s
    12. Width                                    : 1 188 pixels
    13. Height                                   : 720 pixels
    14. Display aspect ratio                     : 5:3
    15. Frame rate mode                          : Constant
    16. Frame rate                               : 25.000 FPS
    17. Color space                              : YUV
    18. Chroma subsampling                       : 4:2:0
    19. Bit depth                                : 8 bits
    20. Scan type                                : Progressive
    21. Bits/(Pixel*Frame)                       : 0.235
    22. Stream size                              : 3.15 GiB (79%)
    23. Writing library                          : x264 core 161 r3015 4c2aafd
    24. Encoding settings                        : cabac=1 / ref=8 / deblock=1:-3:-3 / analyse=0x3:0x133 / me=umh / subme=9 / psy=1 / psy_rd=1.00:0.00 / mixed_ref=1 / me_range=16 / chroma_me=1 / trellis=2 / 8x8dct=1 / cqm=0 / deadzone=21,11 / fast_pskip=0 / chroma_qp_offset=-2 / threads=22 / lookahead_threads=1 / sliced_threads=0 / nr=0 / decimate=1 / interlaced=0 / bluray_compat=0 / constrained_intra=0 / bframes=3 / b_pyramid=2 / b_adapt=2 / b_bias=0 / direct=3 / weightb=1 / open_gop=0 / weightp=2 / keyint=250 / keyint_min=23 / scenecut=40 / intra_refresh=0 / rc_lookahead=60 / rc=crf / mbtree=1 / crf=17.0 / qcomp=0.60 / qpmin=0 / qpmax=69 / qpstep=4 / ip_ratio=1.40 / aq=3:0.90
    25. Default                                  : Yes
    26. Forced                                   : No
    27. Color range                              : Limited
    28. Color primaries                          : BT.709
    29. Transfer characteristics                 : BT.709
    30. Matrix coefficients                      : BT.709

    31. Audio
    32. ID                                       : 2
    33. Format                                   : FLAC
    34. Format/Info                              : Free Lossless Audio Codec
    35. Codec ID                                 : A_FLAC
    36. Duration                                 : 1 h 29 min
    37. Bit rate mode                            : Variable
    38. Bit rate                                 : 1 352 kb/s
    39. Channel(s)                               : 2 channels
    40. Channel layout                           : L R
    41. Sampling rate                            : 48.0 kHz
    42. Frame rate                               : 10.417 FPS (4608 SPF)
    43. Bit depth                                : 24 bits
    44. Compression mode                         : Lossless
    45. Stream size                              : 866 MiB (21%)
    46. Writing library                          : MakeMKV v1.15.1 win(x64-release)
    47. Language                                 : English
    48. Default                                  : Yes
    49. Forced                                   : No

    50. Text
    51. ID                                       : 3
    52. Format                                   : PGS
    53. Muxing mode                              : zlib
    54. Codec ID                                 : S_HDMV/PGS
    55. Codec ID/Info                            : Picture based subtitle format used on BDs/HD-DVDs
    56. Duration                                 : 1 h 27 min
    57. Bit rate                                 : 28.7 kb/s
    58. Count of elements                        : 1612
    59. Stream size                              : 18.0 MiB (0%)
    60. Title                                    : SDH
    61. Language                                 : German
    62. Default                                  : No
    63. Forced                                   : No

    64. Menu
    65. 00:00:00.000                             : en:00:00:00.000
    66. 00:07:28.320                             : en:00:07:28.320
    67. 00:13:12.480                             : en:00:13:12.480
    68. 00:19:08.640                             : en:00:19:08.640
    69. 00:26:01.440                             : en:00:26:01.440
    70. 00:31:58.080                             : en:00:31:58.080
    71. 00:39:36.960                             : en:00:39:36.960
    72. 00:47:37.920                             : en:00:47:37.920
    73. 00:57:10.080                             : en:00:57:10.080
    74. 01:05:43.200                             : en:01:05:43.200
    75. 01:12:27.840                             : en:01:12:27.840
    76. 01:19:25.920                             : en:01:19:25.920
    复制代码


    游客,如果您要查看本帖隐藏内容请回复




    回复

    使用道具 举报

    该用户从未签到

    0

    主题

    4430

    帖子

    3830

    积分

    论坛元老

    Rank: 8Rank: 8

    积分
    3830
    发表于 2021-2-21 21:54:37 | 显示全部楼层
    回复 支持 反对

    使用道具 举报

    该用户从未签到

    0

    主题

    5940

    帖子

    4497

    积分

    论坛元老

    Rank: 8Rank: 8

    积分
    4497
    发表于 2021-2-21 22:31:21 | 显示全部楼层
    回复 支持 反对

    使用道具 举报

    该用户从未签到

    0

    主题

    7857

    帖子

    7078

    积分

    论坛元老

    Rank: 8Rank: 8

    积分
    7078
    发表于 2021-2-22 10:45:35 | 显示全部楼层
    这个帖子不回对不起自己!我想我是一天也不能离开蓝光电影网
    回复 支持 反对

    使用道具 举报

    该用户从未签到

    0

    主题

    1万

    帖子

    1万

    积分

    论坛元老

    Rank: 8Rank: 8

    积分
    17623
    发表于 2021-2-22 10:46:04 | 显示全部楼层

    非常精彩的电影,下来收藏,感谢楼主
    回复 支持 反对

    使用道具 举报

    该用户从未签到

    0

    主题

    2万

    帖子

    1万

    积分

    论坛元老

    Rank: 8Rank: 8

    积分
    18385
    发表于 2021-2-22 10:46:04 | 显示全部楼层
    回复 支持 反对

    使用道具 举报

    该用户从未签到

    0

    主题

    508

    帖子

    128

    积分

    注册会员

    Rank: 2

    积分
    128
    发表于 2021-2-22 22:47:02 | 显示全部楼层
    回复 支持 反对

    使用道具 举报

    该用户从未签到

    0

    主题

    3万

    帖子

    2万

    积分

    论坛元老

    Rank: 8Rank: 8

    积分
    28148
    发表于 2021-2-23 02:39:05 | 显示全部楼层
    楼主太厉害了!楼主,电影应该很好看我觉得蓝光电影下载真是个好地方!
    回复 支持 反对

    使用道具 举报

    该用户从未签到

    0

    主题

    1万

    帖子

    1万

    积分

    论坛元老

    Rank: 8Rank: 8

    积分
    17623
    发表于 2021-2-23 12:12:29 | 显示全部楼层
    回复 支持 反对

    使用道具 举报

    该用户从未签到

    0

    主题

    3万

    帖子

    2万

    积分

    论坛元老

    Rank: 8Rank: 8

    积分
    28148
    发表于 2021-2-23 12:51:11 | 显示全部楼层
    回复 支持 反对

    使用道具 举报

    懒得打字嘛,点击右侧快捷回复 【右侧内容,后台自定义】
    您需要登录后才可以回帖 登录 | 立即注册

    本版积分规则

    郑重声明,本站所有作品片源来自互联网公开渠道,均为网友上传交流学习,影视版权均归原电影公司所有,如有侵犯版权,请与 2322694662@qq.com 联系,我们将立即删除。

    小黑屋|手机版|Archiver|百度统计|投诉|蓝光电影下载

    GMT+8, 2021-10-17 10:46 , Processed in 0.098128 second(s), 23 queries , Gzip On, MemCached On.

    Powered by Discuz! X3.4

    © 2001-2013 Comsenz Inc.

    快速回复 返回顶部 返回列表