快捷导航
查看: 19|回复: 9

[喜剧] 飞天万能车 Chitty.Chitty.Bang.Bang.1968.1080p.BluRay.x264-AVCHD 10.93GB

[复制链接]
  • TA的每日心情
    开心
    2020-2-15 21:32
  • 签到天数: 240 天

    [LV.8]以坛为家I

    1万

    主题

    1万

    帖子

    7万

    积分

    管理员

    蓝光君

    Rank: 9Rank: 9Rank: 9

    积分
    77260

    活跃会员热心会员推广达人突出贡献优秀版主荣誉管理论坛元老

    QQ
    发表于 5 天前 | 显示全部楼层 |阅读模式
    1. 帖子完整标题:飞天万能车 Chitty.Chitty.Bang.Bang.1968.1080p.BluRay.x264-AVCHD 10.93GB
    复制代码
    飞天万能车 Chitty.Chitty.Bang.Bang.1968.1080p.BluRay.x264-AVCHD 10.93GB-1.jpeg


    译  名 飞天万能车
    片  名 Chitty Chitty Bang Bang
    年  代 1968
    产  地 英国
    类  别 喜剧 / 歌舞 / 家庭 / 奇幻
    语  言 英语
    上映日期 1969-12-04
    IMDb评分  6.9/10 from 39916 users
    IMDb链接  https://www.imdb.com/title/tt0062803
    豆瓣评分 7.5/10 from 163 users
    豆瓣链接 https://movie.douban.com/subject/1300407/
    片  长 144 分钟
    导  演 Ken Hughes
    编  剧 罗尔德·达尔 Roald Dahl / 伊恩·弗莱明 Ian Fleming / Ken Hughes / 理查德·麦鲍姆 Richard Maibaum
    主  演 迪克·范·戴克 Dick Van Dyke
           莎莉·安·豪威斯 Sally Ann Howes
           莱昂内尔·杰夫瑞斯 Lionel Jeffries


    标  签 喜剧 | 英国 | 音乐剧 | 歌舞 | 1968 | 英国电影 | 音乐 | 1960s

    简  介   

      一名怪点子特多的发明家,带着两个孩子驾驶一辆老爷车出外度假,碰到连篇怪事。不久,孩子们祖父竟遭绑架,孩子们也成为歹徒觊觎的目标。此时老爷车开成了可以飞天下海的万能车,带领发明家去拯救亲人。

    获奖情况  

      第41届奥斯卡金像奖(1969)
      最佳原创歌曲(提名) 理查德·谢尔曼 / 罗伯特·谢尔曼
    1. Video
    2. ID                                       : 1
    3. Format                                   : AVC
    4. Format/Info                              : Advanced Video Codec
    5. Format profile                           : High@L4
    6. Format settings                          : CABAC / 4 Ref Frames
    7. Format settings, CABAC                   : Yes
    8. Format settings, Reference frames        : 4 frames
    9. Codec ID                                 : V_MPEG4/ISO/AVC
    10. Duration                                 : 2 h 25 min
    11. Bit rate                                 : 9 248 kb/s
    12. Width                                    : 1 920 pixels
    13. Height                                   : 880 pixels
    14. Display aspect ratio                     : 2.2:1
    15. Frame rate mode                          : Constant
    16. Frame rate                               : 23.976 (23976/1000/189150) FPS
    17. Color space                              : YUV
    18. Chroma subsampling                       : 4:2:0
    19. Bit depth                                : 8 bits
    20. Scan type                                : Progressive
    21. Bits/(Pixel*Frame)                       : 0.228
    22. Stream size                              : 9.18 GiB (84%)
    23. Writing library                          : x264 core 107 r1745 4785e8e
    24. Encoding settings                        : cabac=1 / ref=4 / deblock=1:0:0 / analyse=0x3:0x133 / me=umh / subme=9 / psy=1 / psy_rd=1.00:0.00 / mixed_ref=1 / me_range=16 / chroma_me=1 / trellis=1 / 8x8dct=1 / cqm=0 / deadzone=21,11 / fast_pskip=0 / chroma_qp_offset=-2 / threads=12 / sliced_threads=0 / nr=0 / decimate=1 / interlaced=0 / constrained_intra=0 / bframes=3 / b_pyramid=2 / b_adapt=1 / b_bias=0 / direct=1 / weightb=1 / open_gop=0 / weightp=2 / keyint=250 / keyint_min=23 / scenecut=40 / intra_refresh=0 / rc_lookahead=40 / rc=2pass / mbtree=1 / bitrate=9248 / ratetol=1.0 / qcomp=0.60 / qpmin=10 / qpmax=51 / qpstep=4 / cplxblur=20.0 / qblur=0.5 / ip_ratio=1.40 / aq=1:1.00
    25. Language                                 : English
    26. Default                                  : No
    27. Forced                                   : No

    28. Audio
    29. ID                                       : 2
    30. Format                                   : DTS
    31. Format/Info                              : Digital Theater Systems
    32. Codec ID                                 : A_DTS
    33. Duration                                 : 2 h 25 min
    34. Bit rate mode                            : Constant
    35. Bit rate                                 : 1 509 kb/s
    36. Channel(s)                               : 6 channels
    37. Channel layout                           : C L R Ls Rs LFE
    38. Sampling rate                            : 48.0 kHz
    39. Frame rate                               : 93.750 FPS (512 SPF)
    40. Bit depth                                : 24 bits
    41. Compression mode                         : Lossy
    42. Stream size                              : 1.53 GiB (14%)
    43. Default                                  : Yes
    44. Forced                                   : No

    45. Text
    46. ID                                       : 3
    47. Format                                   : UTF-8
    48. Codec ID                                 : S_TEXT/UTF8
    49. Codec ID/Info                            : UTF-8 Plain Text
    50. Language                                 : English
    51. Default                                  : Yes
    52. Forced                                   : No
    复制代码

    飞天万能车 Chitty.Chitty.Bang.Bang.1968.1080p.BluRay.x264-AVCHD 10.93GB-2.png
    飞天万能车 Chitty.Chitty.Bang.Bang.1968.1080p.BluRay.x264-AVCHD 10.93GB-3.png

    本帖隐藏的内容需要注册登陆才可浏览,您需要注册才可浏览,点击这里注册




    大中午的快困死蓝光君了
    回复

    使用道具 举报

    该用户从未签到

    0

    主题

    1437

    帖子

    42

    积分

    新手上路

    Rank: 1

    积分
    42
    发表于 5 天前 | 显示全部楼层
    回复 支持 反对

    使用道具 举报

    该用户从未签到

    0

    主题

    2万

    帖子

    1万

    积分

    论坛元老

    Rank: 8Rank: 8

    积分
    17501
    发表于 4 天前 | 显示全部楼层

    是个好电影!必须要看的!多谢分享!
    回复 支持 反对

    使用道具 举报

    该用户从未签到

    0

    主题

    944

    帖子

    828

    积分

    高级会员

    Rank: 4

    积分
    828
    发表于 4 天前 | 显示全部楼层
    感谢楼主的无私分享!要想蓝光高清电影网好 就靠你我他
    回复 支持 反对

    使用道具 举报

  • TA的每日心情
    开心
    昨天 07:32
  • 签到天数: 14 天

    [LV.3]偶尔看看II

    0

    主题

    91

    帖子

    176

    积分

    注册会员

    Rank: 2

    积分
    176
    发表于 4 天前 | 显示全部楼层
    回复 支持 反对

    使用道具 举报

    该用户从未签到

    0

    主题

    119

    帖子

    -33

    积分

    限制会员

    积分
    -33
    发表于 4 天前 | 显示全部楼层
    回复 支持 反对

    使用道具 举报

    该用户从未签到

    0

    主题

    1万

    帖子

    1万

    积分

    论坛元老

    Rank: 8Rank: 8

    积分
    11956
    发表于 4 天前 | 显示全部楼层

    非常精彩的电影,下来收藏,感谢楼主
    回复 支持 反对

    使用道具 举报

    该用户从未签到

    0

    主题

    2万

    帖子

    1万

    积分

    论坛元老

    Rank: 8Rank: 8

    积分
    17501
    发表于 4 天前 | 显示全部楼层
    回复 支持 反对

    使用道具 举报

    该用户从未签到

    0

    主题

    697

    帖子

    584

    积分

    高级会员

    Rank: 4

    积分
    584
    发表于 昨天 10:06 | 显示全部楼层
    回复 支持 反对

    使用道具 举报

    该用户从未签到

    0

    主题

    2万

    帖子

    1万

    积分

    论坛元老

    Rank: 8Rank: 8

    积分
    17501
    发表于 昨天 17:26 | 显示全部楼层
    回复 支持 反对

    使用道具 举报

    懒得打字嘛,点击右侧快捷回复 【右侧内容,后台自定义】
    您需要登录后才可以回帖 登录 | 立即注册

    本版积分规则

    郑重声明,本站所有作品片源来自互联网公开渠道,均为网友上传交流学习,影视版权均归原电影公司所有,如有侵犯版权,请与 2322694662@qq.com 联系,我们将立即删除。

    小黑屋|手机版|Archiver|百度统计|投诉|蓝光电影下载

    GMT+8, 2021-2-27 05:56 , Processed in 0.080601 second(s), 27 queries , Gzip On, MemCached On.

    Powered by Discuz! X3.4

    © 2001-2013 Comsenz Inc.

    快速回复 返回顶部 返回列表