快捷导航
查看: 38|回复: 11

[喜剧] 黑羊/冒牌大间谍 Black.Sheep.1996.1080p.BluRay.x264-AVCHD 7.95GB

[复制链接]
  • TA的每日心情
    开心
    昨天 21:17
  • 签到天数: 14 天

    [LV.3]偶尔看看II

    441

    主题

    479

    帖子

    1104

    积分

    发布组

    积分
    1104
    发表于 5 天前 | 显示全部楼层 |阅读模式
    1. 帖子完整标题:黑羊/冒牌大间谍 Black.Sheep.1996.1080p.BluRay.x264-AVCHD 7.95GB
    复制代码



    译  名 黑羊 / 冒牌大间谍
    片  名 Black Sheep
    年  代 1996
    产  地 美国
    类  别 喜剧
    语  言 英语
    上映日期 1996-02-02
    IMDb评分  6.3/10 from 35808 users
    IMDb链接  https://www.imdb.com/title/tt0115697
    豆瓣评分 5.7/10 from 115 users
    豆瓣链接 https://movie.douban.com/subject/1422985/
    片  长 87 分钟
    导  演 佩内洛普·斯皮瑞斯 Penelope Spheeris
    编  剧 Fred Wolf
    主  演 Chris Farley
           David Spade
           Tim Matheson


    标  签 喜剧 | 美国 | 政治 | 恶搞 | 美国电影 | 无厘头 | 温情 | 1996

    简  介   

      Al(提姆·麦锡森 Tim Matheson 饰)是个十分被看好的州长候选人,很怕因为他的笨蛋老弟Mike(克里斯·法雷 Chris Farley 饰)蒙羞,于是雇了Steve(大卫·斯佩德 David Spade 饰)来看管Mike以免他出什么乱子,从这一刻起就状况百出、 笑料不断。
      全片就像是一个喜剧大杂烩,让您捧腹大笑,跌破眼镜。
    1. Video
    2. ID                                       : 1
    3. Format                                   : AVC
    4. Format/Info                              : Advanced Video Codec
    5. Format profile                           : High@L4
    6. Format settings                          : CABAC / 4 Ref Frames
    7. Format settings, CABAC                   : Yes
    8. Format settings, Reference frames        : 4 frames
    9. Codec ID                                 : V_MPEG4/ISO/AVC
    10. Duration                                 : 1 h 26 min
    11. Bit rate                                 : 12.5 Mb/s
    12. Width                                    : 1 920 pixels
    13. Height                                   : 1 080 pixels
    14. Display aspect ratio                     : 16:9
    15. Frame rate mode                          : Constant
    16. Frame rate                               : 23.976 (23976/1000/189150) FPS
    17. Color space                              : YUV
    18. Chroma subsampling                       : 4:2:0
    19. Bit depth                                : 8 bits
    20. Scan type                                : Progressive
    21. Bits/(Pixel*Frame)                       : 0.252
    22. Stream size                              : 7.40 GiB (93%)
    23. Writing library                          : x264 core 75 r1251 e553a4c
    24. Encoding settings                        : cabac=1 / ref=4 / deblock=1:0:0 / analyse=0x3:0x133 / me=umh / subme=7 / psy=1 / psy_rd=1.0:0.0 / mixed_ref=1 / me_range=16 / chroma_me=1 / trellis=1 / 8x8dct=1 / cqm=0 / deadzone=21,11 / chroma_qp_offset=-2 / threads=3 / nr=0 / decimate=1 / mbaff=0 / bframes=3 / b_pyramid=0 / b_adapt=1 / b_bias=0 / direct=1 / wpredb=1 / keyint=250 / keyint_min=25 / scenecut=40 / rc_lookahead=40 / rc=2pass / mbtree=1 / bitrate=12516 / ratetol=1.0 / qcomp=0.60 / qpmin=10 / qpmax=51 / qpstep=4 / cplxblur=20.0 / qblur=0.5 / ip_ratio=1.40 / aq=1:1.00
    25. Language                                 : English
    26. Default                                  : No
    27. Forced                                   : No

    28. Audio
    29. ID                                       : 2
    30. Format                                   : AC-3
    31. Format/Info                              : Audio Coding 3
    32. Commercial name                          : Dolby Digital
    33. Codec ID                                 : A_AC3
    34. Duration                                 : 1 h 26 min
    35. Bit rate mode                            : Constant
    36. Bit rate                                 : 640 kb/s
    37. Channel(s)                               : 5 channels
    38. Channel layout                           : L R C Ls Rs
    39. Sampling rate                            : 48.0 kHz
    40. Frame rate                               : 31.250 FPS (1536 SPF)
    41. Compression mode                         : Lossy
    42. Stream size                              : 396 MiB (5%)
    43. Language                                 : English
    44. Service kind                             : Complete Main
    45. Default                                  : Yes
    46. Forced                                   : No
    复制代码





    本帖隐藏的内容需要注册登陆才可浏览,您需要注册才可浏览,点击这里注册




    黑羊/冒牌大间谍 Black.Sheep.1996.1080p.BluRay.x264-AVCHD 7.95GB-1.jpeg
    黑羊/冒牌大间谍 Black.Sheep.1996.1080p.BluRay.x264-AVCHD 7.95GB-2.png
    黑羊/冒牌大间谍 Black.Sheep.1996.1080p.BluRay.x264-AVCHD 7.95GB-3.png
    回复

    使用道具 举报

    该用户从未签到

    0

    主题

    1437

    帖子

    42

    积分

    新手上路

    Rank: 1

    积分
    42
    发表于 5 天前 | 显示全部楼层
    回复 支持 反对

    使用道具 举报

    该用户从未签到

    0

    主题

    1万

    帖子

    1万

    积分

    论坛元老

    Rank: 8Rank: 8

    积分
    10891
    发表于 4 天前 | 显示全部楼层
    回复 支持 反对

    使用道具 举报

    该用户从未签到

    0

    主题

    1万

    帖子

    1万

    积分

    论坛元老

    Rank: 8Rank: 8

    积分
    11956
    发表于 4 天前 | 显示全部楼层
    这个帖子不回对不起自己!我想我是一天也不能离开蓝光电影网
    回复 支持 反对

    使用道具 举报

    该用户从未签到

    0

    主题

    1万

    帖子

    1万

    积分

    论坛元老

    Rank: 8Rank: 8

    积分
    11956
    发表于 前天 01:28 | 显示全部楼层
    回复 支持 反对

    使用道具 举报

    该用户从未签到

    0

    主题

    1466

    帖子

    1259

    积分

    金牌会员

    Rank: 6Rank: 6

    积分
    1259
    发表于 前天 15:53 | 显示全部楼层
    回复 支持 反对

    使用道具 举报

  • TA的每日心情
    开心
    2021-2-11 08:23
  • 签到天数: 8 天

    [LV.3]偶尔看看II

    1

    主题

    1256

    帖子

    1393

    积分

    VIP

    积分
    1393
    发表于 前天 15:57 | 显示全部楼层
    回复 支持 反对

    使用道具 举报

    该用户从未签到

    0

    主题

    156

    帖子

    -11

    积分

    限制会员

    积分
    -11
    发表于 前天 16:42 | 显示全部楼层
    回复 支持 反对

    使用道具 举报

    该用户从未签到

    0

    主题

    1万

    帖子

    1万

    积分

    论坛元老

    Rank: 8Rank: 8

    积分
    11956
    发表于 昨天 00:00 | 显示全部楼层
    回复 支持 反对

    使用道具 举报

    该用户从未签到

    0

    主题

    1万

    帖子

    1万

    积分

    论坛元老

    Rank: 8Rank: 8

    积分
    11956
    发表于 昨天 00:09 | 显示全部楼层
    楼主太厉害了!楼主,电影应该很好看我觉得蓝光电影下载真是个好地方!
    回复 支持 反对

    使用道具 举报

    懒得打字嘛,点击右侧快捷回复 【右侧内容,后台自定义】
    您需要登录后才可以回帖 登录 | 立即注册

    本版积分规则

    郑重声明,本站所有作品片源来自互联网公开渠道,均为网友上传交流学习,影视版权均归原电影公司所有,如有侵犯版权,请与 2322694662@qq.com 联系,我们将立即删除。

    小黑屋|手机版|Archiver|百度统计|投诉|蓝光电影下载

    GMT+8, 2021-2-27 04:52 , Processed in 0.078477 second(s), 26 queries , Gzip On, MemCached On.

    Powered by Discuz! X3.4

    © 2001-2013 Comsenz Inc.

    快速回复 返回顶部 返回列表