快捷导航
查看: 51|回复: 13

[恐怖] 夺命之爱 The.Loved.Ones.2009.1080p.BluRay.x264-AVCHD 6.55GB

[复制链接]
  • TA的每日心情
    开心
    2020-2-15 21:32
  • 签到天数: 240 天

    [LV.8]以坛为家I

    1万

    主题

    1万

    帖子

    7万

    积分

    管理员

    蓝光君

    Rank: 9Rank: 9Rank: 9

    积分
    77260

    活跃会员热心会员推广达人突出贡献优秀版主荣誉管理论坛元老

    QQ
    发表于 5 天前 | 显示全部楼层 |阅读模式
    1. 帖子完整标题:夺命之爱 The.Loved.Ones.2009.1080p.BluRay.x264-AVCHD 6.55GB
    复制代码
    夺命之爱 The.Loved.Ones.2009.1080p.BluRay.x264-AVCHD 6.55GB-1.jpeg


    译  名 夺命之爱
    片  名 The Loved Ones
    年  代 2009
    产  地 澳大利亚
    类  别 恐怖
    语  言 英语
    上映日期 2009-06-01
    IMDb评分  6.6/10 from 36265 users
    IMDb链接  https://www.imdb.com/title/tt1316536
    豆瓣评分 6.4/10 from 3313 users
    豆瓣链接 https://movie.douban.com/subject/3288399/
    片  长 84 分钟
    导  演 肖恩·伯恩 Sean Byrne
    编  剧 肖恩·伯恩 Sean Byrne
    主  演 Jessica McNamee
           Richard Wilson
           Xavier Samuel


    标  签 恐怖 | 澳大利亚 | 血腥 | 惊悚 | 暴力 | 2009 | 澳大利亚电影 | 悬疑

    简  介   

      半年前,17岁的布兰特(Xavier Samuel 饰)与父亲驾车遭遇车祸,父亲身亡,布兰特和母亲始终没有从伤痛中走出。同校的劳拉(Robin McLeavy 饰)邀请布兰特同去舞会,布兰特木讷的予以拒绝,转头陪伴自己的女友赫莉。当天布兰特独身在野外攀岩,当他来到山顶时,久候多时的劳拉之父将他麻醉带走。
      布兰特醒来时,发现自己被困在劳拉家中,这个看上去文静的微胖女孩居然利用自己的父亲将多位男孩绑架,父女二人残酷的虐待他们,最后用电钻把他们的头骨钻开变成嘶哑的痴呆。劳拉的母亲也不能免于折磨,她形容枯槁奄奄一息,被父女二人视为无物。面对这对关系暧昧的怪异父女,布兰特必须用尽一切办法自救……
    1. Video
    2. ID                                       : 1
    3. Format                                   : AVC
    4. Format/Info                              : Advanced Video Codec
    5. Format profile                           : High@L4
    6. Format settings                          : CABAC / 5 Ref Frames
    7. Format settings, CABAC                   : Yes
    8. Format settings, Reference frames        : 5 frames
    9. Codec ID                                 : V_MPEG4/ISO/AVC
    10. Duration                                 : 1 h 24 min
    11. Bit rate                                 : 9 650 kb/s
    12. Width                                    : 1 920 pixels
    13. Height                                   : 800 pixels
    14. Display aspect ratio                     : 2.40:1
    15. Frame rate mode                          : Constant
    16. Frame rate                               : 24.000 FPS
    17. Color space                              : YUV
    18. Chroma subsampling                       : 4:2:0
    19. Bit depth                                : 8 bits
    20. Scan type                                : Progressive
    21. Bits/(Pixel*Frame)                       : 0.262
    22. Stream size                              : 5.54 GiB (84%)
    23. Writing library                          : x264 core 105 r1724 b02df7b
    24. Encoding settings                        : cabac=1 / ref=5 / deblock=1:0:0 / analyse=0x3:0x133 / me=umh / subme=7 / psy=1 / psy_rd=1.00:0.00 / mixed_ref=1 / me_range=16 / chroma_me=1 / trellis=1 / 8x8dct=1 / cqm=0 / deadzone=21,11 / fast_pskip=0 / chroma_qp_offset=-2 / threads=12 / sliced_threads=0 / nr=0 / decimate=1 / interlaced=0 / constrained_intra=0 / bframes=3 / b_pyramid=2 / b_adapt=1 / b_bias=0 / direct=1 / weightb=1 / open_gop=0 / weightp=2 / keyint=250 / keyint_min=24 / scenecut=40 / intra_refresh=0 / rc_lookahead=40 / rc=2pass / mbtree=1 / bitrate=9650 / ratetol=1.0 / qcomp=0.60 / qpmin=10 / qpmax=51 / qpstep=4 / cplxblur=20.0 / qblur=0.5 / ip_ratio=1.40 / aq=1:1.00
    25. Language                                 : English
    26. Default                                  : No
    27. Forced                                   : No

    28. Audio
    29. ID                                       : 2
    30. Format                                   : DTS
    31. Format/Info                              : Digital Theater Systems
    32. Codec ID                                 : A_DTS
    33. Duration                                 : 1 h 24 min
    34. Bit rate mode                            : Constant
    35. Bit rate                                 : 1 509 kb/s
    36. Channel(s)                               : 6 channels
    37. Channel layout                           : C L R Ls Rs LFE
    38. Sampling rate                            : 48.0 kHz
    39. Frame rate                               : 93.750 FPS (512 SPF)
    40. Bit depth                                : 24 bits
    41. Compression mode                         : Lossy
    42. Stream size                              : 908 MiB (14%)
    43. Default                                  : Yes
    44. Forced                                   : No

    45. Text
    46. ID                                       : 3
    47. Format                                   : UTF-8
    48. Codec ID                                 : S_TEXT/UTF8
    49. Codec ID/Info                            : UTF-8 Plain Text
    50. Language                                 : English
    51. Default                                  : Yes
    52. Forced                                   : No
    复制代码

    夺命之爱 The.Loved.Ones.2009.1080p.BluRay.x264-AVCHD 6.55GB-2.png
    夺命之爱 The.Loved.Ones.2009.1080p.BluRay.x264-AVCHD 6.55GB-3.png
    夺命之爱 The.Loved.Ones.2009.1080p.BluRay.x264-AVCHD 6.55GB-4.png

    本帖隐藏的内容需要注册登陆才可浏览,您需要注册才可浏览,点击这里注册




    大中午的快困死蓝光君了
    回复

    使用道具 举报

    该用户从未签到

    0

    主题

    1437

    帖子

    42

    积分

    新手上路

    Rank: 1

    积分
    42
    发表于 5 天前 | 显示全部楼层
    这个帖子不回对不起自己!我想我是一天也不能离开蓝光电影网
    回复 支持 反对

    使用道具 举报

    该用户从未签到

    0

    主题

    2万

    帖子

    1万

    积分

    论坛元老

    Rank: 8Rank: 8

    积分
    17501
    发表于 5 天前 | 显示全部楼层
    回复 支持 反对

    使用道具 举报

    该用户从未签到

    0

    主题

    2839

    帖子

    2265

    积分

    金牌会员

    Rank: 6Rank: 6

    积分
    2265
    发表于 5 天前 | 显示全部楼层

    是个好电影!必须要看的!多谢分享!
    回复 支持 反对

    使用道具 举报

    该用户从未签到

    0

    主题

    2839

    帖子

    2265

    积分

    金牌会员

    Rank: 6Rank: 6

    积分
    2265
    发表于 5 天前 | 显示全部楼层
    楼主太厉害了!楼主,电影应该很好看我觉得蓝光电影下载真是个好地方!
    回复 支持 反对

    使用道具 举报

    该用户从未签到

    0

    主题

    1万

    帖子

    1万

    积分

    论坛元老

    Rank: 8Rank: 8

    积分
    11956
    发表于 4 天前 | 显示全部楼层
    回复 支持 反对

    使用道具 举报

    该用户从未签到

    0

    主题

    2527

    帖子

    2334

    积分

    金牌会员

    Rank: 6Rank: 6

    积分
    2334
    发表于 4 天前 | 显示全部楼层
    回复 支持 反对

    使用道具 举报

    该用户从未签到

    0

    主题

    699

    帖子

    581

    积分

    高级会员

    Rank: 4

    积分
    581
    发表于 4 天前 | 显示全部楼层
    回复 支持 反对

    使用道具 举报

    该用户从未签到

    0

    主题

    1万

    帖子

    1万

    积分

    论坛元老

    Rank: 8Rank: 8

    积分
    11956
    发表于 4 天前 | 显示全部楼层
    回复 支持 反对

    使用道具 举报

    该用户从未签到

    0

    主题

    1437

    帖子

    42

    积分

    新手上路

    Rank: 1

    积分
    42
    发表于 4 天前 | 显示全部楼层

    非常精彩的电影,下来收藏,感谢楼主
    回复 支持 反对

    使用道具 举报

    懒得打字嘛,点击右侧快捷回复 【右侧内容,后台自定义】
    您需要登录后才可以回帖 登录 | 立即注册

    本版积分规则

    郑重声明,本站所有作品片源来自互联网公开渠道,均为网友上传交流学习,影视版权均归原电影公司所有,如有侵犯版权,请与 2322694662@qq.com 联系,我们将立即删除。

    小黑屋|手机版|Archiver|百度统计|投诉|蓝光电影下载

    GMT+8, 2021-2-27 06:20 , Processed in 0.080489 second(s), 25 queries , Gzip On, MemCached On.

    Powered by Discuz! X3.4

    © 2001-2013 Comsenz Inc.

    快速回复 返回顶部 返回列表