快捷导航
查看: 36|回复: 14

[剧情] 神秘美人局/催眠 Looker.1981.1080p.BluRay.x264-PSYCHD 9.84GB

[复制链接]
  • TA的每日心情
    开心
    昨天 21:17
  • 签到天数: 14 天

    [LV.3]偶尔看看II

    441

    主题

    479

    帖子

    1104

    积分

    发布组

    积分
    1104
    发表于 5 天前 | 显示全部楼层 |阅读模式
    1. 帖子完整标题:神秘美人局/催眠 Looker.1981.1080p.BluRay.x264-PSYCHD 9.84GB
    复制代码
    神秘美人局/催眠 Looker.1981.1080p.BluRay.x264-PSYCHD 9.84GB-1.jpeg


    译  名 神秘美人局 / 催眠 / 电脑美人 / 绝命猎杀档案
    片  名 Looker
    年  代 1981
    产  地 美国
    类  别 剧情 / 科幻 / 惊悚
    语  言 英语
    上映日期 1981-10-30
    IMDb评分  6.1/10 from 4602 users
    IMDb链接  https://www.imdb.com/title/tt0082677
    豆瓣评分 6.4/10 from 248 users
    豆瓣链接 https://movie.douban.com/subject/1305651/
    片  长 93 分钟
    导  演 迈克尔·克莱顿 Michael Crichton
    编  剧 迈克尔·克莱顿 Michael Crichton
    主  演 阿尔伯特·芬尼 Albert Finney
           James Coburn
           Susan Dey


    标  签 科幻 | 美国 | 悬疑 | 惊悚 | 美国电影 | 1980s | 恐怖 | 1981

    简  介   

      描写洛杉矶的一家外科整型医院,常有众多美女前来求诊,希望整容后成为名模。不料别具野心的院长利用一个神秘的黑箱来窥视这些女顾客,其中一些人又发生离奇死亡。阿尔伯特·芬尼饰演的医生涉有重嫌,他决定追查真相还自己清白,终于发现了院长詹姆斯·科伯恩的阴谋...
       影片介绍:
      本片是侏罗纪公园原著编剧迈克尔.克里奇顿早期自编自导的惊险悬疑片。描写洛杉矶的一家外科整型医院,常有众多美女前来求诊,希望整容后成为名模。不料别具野心的院长利用一个神秘的黑箱来窥视这些女顾客,其中一些人又发生离奇死亡。阿尔伯特.芬尼饰演的医生涉有重嫌,他决定追查真相还自己清白,终于发现了院长詹姆斯.科伯恩的阴谋。众多美女的加盟和刺激的偷窥镜头,无疑是本片吸引观众眼球的亮点。本片与克里奇顿的另一部作品《八号房禁地》题材类似,导演风格和娱乐效果也相若,倘若你知道他原是医生出身的畅销作家,也就不足为怪了。
      本片获得1982年布鲁塞尔科幻国际电影节最佳科幻影片奖。
    1. Video
    2. ID                                       : 1
    3. Format                                   : AVC
    4. Format/Info                              : Advanced Video Codec
    5. Format profile                           : High@L4
    6. Format settings                          : CABAC / 5 Ref Frames
    7. Format settings, CABAC                   : Yes
    8. Format settings, Reference frames        : 5 frames
    9. Codec ID                                 : V_MPEG4/ISO/AVC
    10. Duration                                 : 1 h 33 min
    11. Bit rate                                 : 13.6 Mb/s
    12. Width                                    : 1 920 pixels
    13. Height                                   : 800 pixels
    14. Display aspect ratio                     : 2.40:1
    15. Frame rate mode                          : Constant
    16. Frame rate                               : 23.976 (24000/1001/189150) FPS
    17. Color space                              : YUV
    18. Chroma subsampling                       : 4:2:0
    19. Bit depth                                : 8 bits
    20. Scan type                                : Progressive
    21. Bits/(Pixel*Frame)                       : 0.368
    22. Stream size                              : 8.65 GiB (88%)
    23. Writing library                          : x264 core 157 r2932 303c484
    24. Encoding settings                        : cabac=1 / ref=5 / deblock=1:-3:-3 / analyse=0x3:0x113 / me=umh / subme=8 / psy=1 / psy_rd=1.10:0.00 / mixed_ref=1 / me_range=32 / chroma_me=1 / trellis=2 / 8x8dct=1 / cqm=0 / deadzone=21,11 / fast_pskip=1 / chroma_qp_offset=-2 / threads=25 / lookahead_threads=4 / sliced_threads=0 / nr=0 / decimate=1 / interlaced=0 / bluray_compat=0 / constrained_intra=0 / bframes=3 / b_pyramid=2 / b_adapt=2 / b_bias=0 / direct=3 / weightb=1 / open_gop=0 / weightp=2 / keyint=240 / keyint_min=24 / scenecut=40 / intra_refresh=0 / rc_lookahead=50 / rc=2pass / mbtree=1 / bitrate=13556 / ratetol=1.0 / qcomp=0.60 / qpmin=0 / qpmax=69 / qpstep=4 / cplxblur=20.0 / qblur=0.5 / ip_ratio=1.40 / aq=3:0.75
    25. Default                                  : Yes
    26. Forced                                   : No
    27. Statistics Tags Issue                    : no_variable_data 1970-01-01 00:00:00 / no_variable_data 2010-02-22 21:41:29
    28. FromStats_BitRate                        : 13551178
    29. FromStats_Duration                       : 01:33:28.687000000
    30. FromStats_FrameCount                     : 134474
    31. FromStats_StreamSize                     : 9500540105

    32. Audio
    33. ID                                       : 2
    34. Format                                   : DTS
    35. Format/Info                              : Digital Theater Systems
    36. Codec ID                                 : A_DTS
    37. Duration                                 : 1 h 33 min
    38. Bit rate mode                            : Constant
    39. Bit rate                                 : 1 509 kb/s
    40. Channel(s)                               : 2 channels
    41. Channel layout                           : L R
    42. Sampling rate                            : 48.0 kHz
    43. Frame rate                               : 93.750 FPS (512 SPF)
    44. Bit depth                                : 24 bits
    45. Compression mode                         : Lossy
    46. Stream size                              : 1 009 MiB (10%)
    47. Language                                 : English
    48. Default                                  : Yes
    49. Forced                                   : No
    50. Statistics Tags Issue                    : no_variable_data 1970-01-01 00:00:00 / no_variable_data 2010-02-22 21:41:29
    51. FromStats_BitRate                        : 1508999
    52. FromStats_Duration                       : 01:33:28.715000000
    53. FromStats_FrameCount                     : 525817
    54. FromStats_StreamSize                     : 1057943804

    55. Text #1
    56. ID                                       : 3
    57. Format                                   : UTF-8
    58. Codec ID                                 : S_TEXT/UTF8
    59. Codec ID/Info                            : UTF-8 Plain Text
    60. Language                                 : English
    61. Default                                  : No
    62. Forced                                   : No
    63. Statistics Tags Issue                    : no_variable_data 1970-01-01 00:00:00 / no_variable_data 2010-02-22 21:41:29
    64. FromStats_BitRate                        : 56
    65. FromStats_Duration                       : 01:31:49.337000000
    66. FromStats_FrameCount                     : 1219
    67. FromStats_StreamSize                     : 39031

    68. Text #2
    69. ID                                       : 4
    70. Format                                   : UTF-8
    71. Codec ID                                 : S_TEXT/UTF8
    72. Codec ID/Info                            : UTF-8 Plain Text
    73. Title                                    : SDH
    74. Language                                 : English
    75. Default                                  : No
    76. Forced                                   : No
    77. Statistics Tags Issue                    : no_variable_data 1970-01-01 00:00:00 / no_variable_data 2010-02-22 21:41:29
    78. FromStats_BitRate                        : 57
    79. FromStats_Duration                       : 01:31:49.337000000
    80. FromStats_FrameCount                     : 1270
    81. FromStats_StreamSize                     : 39813

    82. Menu
    83. 00:00:00.000                             : en:00:00:00.000
    84. 00:00:00.417                             : en:00:00:00.417
    85. 00:02:33.111                             : en:00:02:33.111
    86. 00:03:59.489                             : en:00:03:59.489
    87. 00:07:56.726                             : en:00:07:56.726
    88. 00:11:39.157                             : en:00:11:39.157
    89. 00:15:14.747                             : en:00:15:14.747
    90. 00:20:54.044                             : en:00:20:54.044
    91. 00:27:33.986                             : en:00:27:33.986
    92. 00:31:49.783                             : en:00:31:49.783
    93. 00:35:24.706                             : en:00:35:24.706
    94. 00:39:35.164                             : en:00:39:35.164
    95. 00:42:16.993                             : en:00:42:16.993
    96. 00:46:04.303                             : en:00:46:04.303
    97. 00:48:28.072                             : en:00:48:28.072
    98. 00:50:50.339                             : en:00:50:50.339
    99. 00:53:40.968                             : en:00:53:40.968
    100. 00:56:59.791                             : en:00:56:59.791
    101. 01:01:52.417                             : en:01:01:52.417
    102. 01:08:17.176                             : en:01:08:17.176
    103. 01:11:55.937                             : en:01:11:55.937
    104. 01:14:20.623                             : en:01:14:20.623
    105. 01:17:46.078                             : en:01:17:46.078
    106. 01:23:24.625                             : en:01:23:24.625
    107. 01:29:41.251                             : en:01:29:41.251
    复制代码

    神秘美人局/催眠 Looker.1981.1080p.BluRay.x264-PSYCHD 9.84GB-2.jpeg

    本帖隐藏的内容需要注册登陆才可浏览,您需要注册才可浏览,点击这里注册




    回复

    使用道具 举报

    该用户从未签到

    0

    主题

    2万

    帖子

    1万

    积分

    论坛元老

    Rank: 8Rank: 8

    积分
    17501
    发表于 5 天前 | 显示全部楼层

    非常精彩的电影,下来收藏,感谢楼主
    回复 支持 反对

    使用道具 举报

    该用户从未签到

    0

    主题

    1万

    帖子

    1万

    积分

    论坛元老

    Rank: 8Rank: 8

    积分
    10891
    发表于 5 天前 | 显示全部楼层
    楼主太厉害了!楼主,电影应该很好看我觉得蓝光电影下载真是个好地方!
    回复 支持 反对

    使用道具 举报

    该用户从未签到

    0

    主题

    1万

    帖子

    1万

    积分

    论坛元老

    Rank: 8Rank: 8

    积分
    10891
    发表于 5 天前 | 显示全部楼层
    回复 支持 反对

    使用道具 举报

    该用户从未签到

    0

    主题

    1万

    帖子

    1万

    积分

    论坛元老

    Rank: 8Rank: 8

    积分
    10891
    发表于 5 天前 | 显示全部楼层
    回复 支持 反对

    使用道具 举报

  • TA的每日心情
    开心
    4 天前
  • 签到天数: 11 天

    [LV.3]偶尔看看II

    0

    主题

    42

    帖子

    260

    积分

    中级会员

    Rank: 3Rank: 3

    积分
    260
    发表于 5 天前 | 显示全部楼层
    回复 支持 反对

    使用道具 举报

    该用户从未签到

    0

    主题

    1466

    帖子

    1259

    积分

    金牌会员

    Rank: 6Rank: 6

    积分
    1259
    发表于 5 天前 | 显示全部楼层
    回复 支持 反对

    使用道具 举报

    该用户从未签到

    0

    主题

    1万

    帖子

    1万

    积分

    论坛元老

    Rank: 8Rank: 8

    积分
    10891
    发表于 5 天前 | 显示全部楼层
    回复 支持 反对

    使用道具 举报

    该用户从未签到

    0

    主题

    1165

    帖子

    1011

    积分

    金牌会员

    Rank: 6Rank: 6

    积分
    1011
    发表于 4 天前 | 显示全部楼层
    回复 支持 反对

    使用道具 举报

  • TA的每日心情
    开心
    2016-6-1 14:06
  • 签到天数: 1 天

    [LV.1]初来乍到

    0

    主题

    666

    帖子

    558

    积分

    高级会员

    Rank: 4

    积分
    558
    发表于 4 天前 | 显示全部楼层
    这个帖子不回对不起自己!我想我是一天也不能离开蓝光电影网
    回复 支持 反对

    使用道具 举报

    懒得打字嘛,点击右侧快捷回复 【右侧内容,后台自定义】
    您需要登录后才可以回帖 登录 | 立即注册

    本版积分规则

    郑重声明,本站所有作品片源来自互联网公开渠道,均为网友上传交流学习,影视版权均归原电影公司所有,如有侵犯版权,请与 2322694662@qq.com 联系,我们将立即删除。

    小黑屋|手机版|Archiver|百度统计|投诉|蓝光电影下载

    GMT+8, 2021-2-27 05:16 , Processed in 0.086690 second(s), 29 queries , Gzip On, MemCached On.

    Powered by Discuz! X3.4

    © 2001-2013 Comsenz Inc.

    快速回复 返回顶部 返回列表