快捷导航
查看: 33|回复: 15

[恐怖] 邪恶宿舍夜惊魂/暗影学园 Down.a.Dark.Hall.2018.1080p.BluRay.x264.DTS-CHD 9.16GB

[复制链接]
  • TA的每日心情
    开心
    2020-2-15 21:32
  • 签到天数: 240 天

    [LV.8]以坛为家I

    1万

    主题

    1万

    帖子

    7万

    积分

    管理员

    蓝光君

    Rank: 9Rank: 9Rank: 9

    积分
    77260

    活跃会员热心会员推广达人突出贡献优秀版主荣誉管理论坛元老

    QQ
    发表于 5 天前 | 显示全部楼层 |阅读模式
    1. 帖子完整标题:邪恶宿舍夜惊魂/暗影学园 Down.a.Dark.Hall.2018.1080p.BluRay.x264.DTS-CHD 9.16GB
    复制代码
    邪恶宿舍夜惊魂/暗影学园 Down.a.Dark.Hall.2018.1080p.BluRay.x264.DTS-CHD 9.16GB-1.jpeg

    译  名 邪恶宿舍夜惊魂 / 暗影学园(台) / 步惊魂学院(港) / 沉入暗黑走廊 / 漆黑的走廊尽头 / 黑暗走廊惊魂
    片  名 Down a Dark Hall
    年  代 2018
    产  地 美国
    类  别 剧情 / 恐怖 / 奇幻
    语  言 英语
    上映日期 2018-08-17(美国)
    IMDb评分  5.1/10 from 10230 users
    IMDb链接  https://www.imdb.com/title/tt2372251
    豆瓣评分 5.0/10 from 1289 users
    豆瓣链接 https://movie.douban.com/subject/26982852/
    片  长 96分钟
    导  演 罗德里格·科特兹 Rodrigo Cortés
    编  剧 迈克尔·高德巴赫 Michael Goldbach / 克里斯·斯帕林 Chris Sparling / 路易斯·邓肯 Lois Duncan
    主  演 安娜索菲亚·罗伯 AnnaSophia Robb
           乌玛·瑟曼 Uma Thurman
           伊莎贝拉·弗尔曼 Isabelle Fuhrman
           维多利亚·莫洛勒斯 Victoria Moroles
           诺亚·西尔弗 Noah Silver
           泰勒·拉塞尔 Taylor Russell
           罗希·戴 Rosie Day
           丽贝卡·弗朗特 Rebecca Front
           乔迪·梅 Jodhi May
           皮普·托伦斯 Pip Torrens
           克里斯蒂·米切尔 Kirsty Mitchell
           吉姆·斯图格恩 Jim Sturgeon
           大卫·艾略特 David Elliot
           布莱恩·博维尔 Brian Bovell
           Ramiro Blas
           何塞·利努艾萨 Josep Linuesa


    标  签 恐怖 | 惊悚 | 美国 | 灵异 | 奇幻 | 2018 | 超自然 | 美国电影

    简  介   

      从小失去父亲的女孩凯瑟琳(安娜索菲亚·罗伯 AnnaSophia Robb 饰),在青春期时无比叛逆,她糟糕的行为令学校、母亲、继父头痛不已。于是,不管凯瑟琳同意与否,母亲坚持将她送到了由杜雷伊特小姐(乌玛·瑟曼 Uma Thurman 饰)经营的布莱克伍德寄宿学校。该学校地处偏远乡村,限制学生与外界通话,拒绝网络使用,其创办初衷专门是为了教育矫正那些有着严重问题的女孩子。次日,另外四名劣迹斑斑的女孩子也来到了该学校,她们将跟随数学、文学、音乐、艺术老师学习,再造一个全新的自己。短时间内,少女们各方面的才华陆续得到激发,仿佛她们重新得到命运之神的眷顾。
      然而,一切似乎又发生的如此之诡异……
    1. Video
    2. ID                                       : 1
    3. Format                                   : AVC
    4. Format/Info                              : Advanced Video Codec
    5. Format profile                           : High@L4
    6. Format settings                          : CABAC / 5 Ref Frames
    7. Format settings, CABAC                   : Yes
    8. Format settings, ReFrames                : 5 frames
    9. Codec ID                                 : V_MPEG4/ISO/AVC
    10. Duration                                 : 1 h 36 min
    11. Bit rate                                 : 12.1 Mb/s
    12. Width                                    : 1 920 pixels
    13. Height                                   : 804 pixels
    14. Display aspect ratio                     : 2.40:1
    15. Frame rate mode                          : Constant
    16. Frame rate                               : 23.976 (24000/1001/189150) FPS
    17. Color space                              : YUV
    18. Chroma subsampling                       : 4:2:0
    19. Bit depth                                : 8 bits
    20. Scan type                                : Progressive
    21. Bits/(Pixel*Frame)                       : 0.327
    22. Stream size                              : 8.14 GiB (89%)
    23. Writing library                          : x264 core 155 r2893 b00bcaf
    24. Encoding settings                        : cabac=1 / ref=5 / deblock=1:-3:-3 / analyse=0x3:0x113 / me=umh / subme=10 / psy=1 / psy_rd=1.00:0.05 / mixed_ref=1 / me_range=48 / chroma_me=1 / trellis=2 / 8x8dct=1 / cqm=0 / deadzone=21,11 / fast_pskip=0 / chroma_qp_offset=-2 / threads=18 / lookahead_threads=3 / sliced_threads=0 / nr=0 / decimate=1 / interlaced=0 / bluray_compat=0 / constrained_intra=0 / bframes=8 / b_pyramid=2 / b_adapt=2 / b_bias=0 / direct=3 / weightb=1 / open_gop=0 / weightp=2 / keyint=250 / keyint_min=23 / scenecut=40 / intra_refresh=0 / rc_lookahead=40 / rc=crf / mbtree=0 / crf=19.5 / qcomp=0.60 / qpmin=0 / qpmax=69 / qpstep=4 / vbv_maxrate=50000 / vbv_bufsize=45000 / crf_max=0.0 / nal_hrd=none / filler=0 / ip_ratio=1.40 / pb_ratio=1.30 / aq=3:1.00
    25. Default                                  : Yes
    26. Forced                                   : No
    27. Color range                              : Limited
    28. Matrix coefficients                      : BT.709

    29. Audio
    30. ID                                       : 2
    31. Format                                   : DTS
    32. Format/Info                              : Digital Theater Systems
    33. Codec ID                                 : A_DTS
    34. Duration                                 : 1 h 36 min
    35. Bit rate mode                            : Constant
    36. Bit rate                                 : 1 509 kb/s
    37. Channel(s)                               : 6 channels
    38. Channel layout                           : C L R Ls Rs LFE
    39. Sampling rate                            : 48.0 kHz
    40. Frame rate                               : 93.750 FPS (512 SPF)
    41. Bit depth                                : 24 bits
    42. Compression mode                         : Lossy
    43. Stream size                              : 1.02 GiB (11%)
    44. Language                                 : English
    45. Default                                  : Yes
    46. Forced                                   : No

    47. Text
    48. ID                                       : 3
    49. Format                                   : UTF-8
    50. Codec ID                                 : S_TEXT/UTF8
    51. Codec ID/Info                            : UTF-8 Plain Text
    52. Duration                                 : 1 h 27 min
    53. Bit rate                                 : 44 b/s
    54. Count of elements                        : 1057
    55. Stream size                              : 28.4 KiB (0%)
    56. Language                                 : English
    57. Default                                  : Yes
    58. Forced                                   : No

    59. Menu
    60. 00:00:00.000                             : en:00:00:00.000
    61. 00:06:26.177                             : en:00:06:26.177
    62. 00:11:25.685                             : en:00:11:25.685
    63. 00:16:55.139                             : en:00:16:55.139
    64. 00:21:04.638                             : en:00:21:04.638
    65. 00:28:22.701                             : en:00:28:22.701
    66. 00:33:12.199                             : en:00:33:12.199
    67. 00:39:07.428                             : en:00:39:07.428
    68. 00:44:45.391                             : en:00:44:45.391
    69. 00:48:40.835                             : en:00:48:40.835
    70. 00:55:53.600                             : en:00:55:53.600
    71. 01:01:56.880                             : en:01:01:56.880
    72. 01:07:30.380                             : en:01:07:30.380
    73. 01:11:28.493                             : en:01:11:28.493
    74. 01:16:18.115                             : en:01:16:18.115
    75. 01:26:23.428                             : en:01:26:23.428
    复制代码

    邪恶宿舍夜惊魂/暗影学园 Down.a.Dark.Hall.2018.1080p.BluRay.x264.DTS-CHD 9.16GB-2.png 邪恶宿舍夜惊魂/暗影学园 Down.a.Dark.Hall.2018.1080p.BluRay.x264.DTS-CHD 9.16GB-3.png 邪恶宿舍夜惊魂/暗影学园 Down.a.Dark.Hall.2018.1080p.BluRay.x264.DTS-CHD 9.16GB-4.png

    本帖隐藏的内容需要注册登陆才可浏览,您需要注册才可浏览,点击这里注册



    邪恶宿舍夜惊魂/暗影学园 Down.a.Dark.Hall.2018.1080p.BluRay.x264.DTS-CHD 9.16GB-1.jpeg
    邪恶宿舍夜惊魂/暗影学园 Down.a.Dark.Hall.2018.1080p.BluRay.x264.DTS-CHD 9.16GB-2.png
    大中午的快困死蓝光君了
    回复

    使用道具 举报

    该用户从未签到

    0

    主题

    2839

    帖子

    2265

    积分

    金牌会员

    Rank: 6Rank: 6

    积分
    2265
    发表于 5 天前 | 显示全部楼层
    回复 支持 反对

    使用道具 举报

    该用户从未签到

    0

    主题

    944

    帖子

    828

    积分

    高级会员

    Rank: 4

    积分
    828
    发表于 5 天前 | 显示全部楼层
    回复 支持 反对

    使用道具 举报

    该用户从未签到

    0

    主题

    1万

    帖子

    1万

    积分

    论坛元老

    Rank: 8Rank: 8

    积分
    10891
    发表于 5 天前 | 显示全部楼层

    是个好电影!必须要看的!多谢分享!
    回复 支持 反对

    使用道具 举报

  • TA的每日心情
    奋斗
    5 天前
  • 签到天数: 1 天

    [LV.1]初来乍到

    0

    主题

    3

    帖子

    25

    积分

    新手上路

    Rank: 1

    积分
    25
    发表于 5 天前 | 显示全部楼层
    回复 支持 反对

    使用道具 举报

    该用户从未签到

    0

    主题

    944

    帖子

    828

    积分

    高级会员

    Rank: 4

    积分
    828
    发表于 5 天前 | 显示全部楼层
    回复 支持 反对

    使用道具 举报

    该用户从未签到

    0

    主题

    1万

    帖子

    1万

    积分

    论坛元老

    Rank: 8Rank: 8

    积分
    10891
    发表于 5 天前 | 显示全部楼层

    非常精彩的电影,下来收藏,感谢楼主
    回复 支持 反对

    使用道具 举报

    该用户从未签到

    0

    主题

    1万

    帖子

    1万

    积分

    论坛元老

    Rank: 8Rank: 8

    积分
    11956
    发表于 4 天前 | 显示全部楼层
    回复 支持 反对

    使用道具 举报

    该用户从未签到

    0

    主题

    2万

    帖子

    1万

    积分

    论坛元老

    Rank: 8Rank: 8

    积分
    17501
    发表于 4 天前 | 显示全部楼层
    回复 支持 反对

    使用道具 举报

    该用户从未签到

    0

    主题

    1万

    帖子

    1万

    积分

    论坛元老

    Rank: 8Rank: 8

    积分
    11956
    发表于 4 天前 | 显示全部楼层
    楼主太厉害了!楼主,电影应该很好看我觉得蓝光电影下载真是个好地方!
    回复 支持 反对

    使用道具 举报

    懒得打字嘛,点击右侧快捷回复 【右侧内容,后台自定义】
    您需要登录后才可以回帖 登录 | 立即注册

    本版积分规则

    郑重声明,本站所有作品片源来自互联网公开渠道,均为网友上传交流学习,影视版权均归原电影公司所有,如有侵犯版权,请与 2322694662@qq.com 联系,我们将立即删除。

    小黑屋|手机版|Archiver|百度统计|投诉|蓝光电影下载

    GMT+8, 2021-2-27 05:58 , Processed in 0.050787 second(s), 22 queries , Gzip On, MemCached On.

    Powered by Discuz! X3.4

    © 2001-2013 Comsenz Inc.

    快速回复 返回顶部 返回列表