快捷导航
查看: 27|回复: 12

[喜剧] 哈啦大发师2/理发店2 Barbershop.2.Back.in.Business.2004.1080p.BluRay.x264-PSYCHD 10.93GB

[复制链接]
  • TA的每日心情
    开心
    2020-2-15 21:32
  • 签到天数: 240 天

    [LV.8]以坛为家I

    1万

    主题

    1万

    帖子

    7万

    积分

    管理员

    蓝光君

    Rank: 9Rank: 9Rank: 9

    积分
    77260

    活跃会员热心会员推广达人突出贡献优秀版主荣誉管理论坛元老

    QQ
    发表于 5 天前 | 显示全部楼层 |阅读模式
    1. 帖子完整标题:哈啦大发师2/理发店2 Barbershop.2.Back.in.Business.2004.1080p.BluRay.x264-PSYCHD 10.93GB
    复制代码
    哈啦大发师2/理发店2 Barbershop.2.Back.in.Business.2004.1080p.BluRay.x264-PSYCHD 10.93GB-1.jpeg


    译  名 哈啦大发师2 / 理发店2 / 理发店2:重回本行
    片  名 Barbershop 2: Back in Business
    年  代 2004
    产  地 美国
    类  别 喜剧
    语  言 英语
    上映日期 2004-02-06
    IMDb评分  5.7/10 from 13988 users
    IMDb链接  https://www.imdb.com/title/tt0337579
    豆瓣评分 6.5/10 from 217 users
    豆瓣链接 https://movie.douban.com/subject/1308469/
    片  长 106 分钟
    导  演 Kevin Rodney Sullivan
    编  剧 Don D. Scott / Mark Brown
    主  演 Ice Cube
           Cedric the Entertainer
           Sean Patrick Thomas
           Eve


    标  签 喜剧 | 美国 | 黑人 | 美国电影 | 2004 | 电影 | 英语的标签 | 黑人电影

    简  介   

      经历过经济危机的苦恼后,卡尔文(冰块?酷巴 饰)的理发店没有卖出去继续营业了,阴翳过后这里又恢复了往日的欢声和热闹。这间理发店是卡尔文的家族产业,位于南部芝加哥,虽然收入寥寥一直靠着几个老主顾维持,憨厚热心的卡尔文仍然继续营业,在他看来,这里至少能够带给社区的人们休息和交流的场所。
      理发店似乎还是老样子,人们聚集在这里讨论着家长里短或者国家大事,人人畅所欲言争论不休,却又热闹非常充满生气。理发师老艾迪(锡德里克 饰)还是为顾客们剃着一成不变的发型,以前颇为清高的吉米(辛?派屈克?托马斯 饰)终于变得随和亲切了,而泰莉(伊娃 饰)在对男友的失望之下,选择了一直暗恋她的邓卡(莱昂纳多?艾?豪斯 饰),理发店似乎更加团结亲密了。
      正当卡尔文奢望着理发店安安稳稳的营业下去时,旁边忽然开了间美容院,新潮的设计、先进的设备、优秀的理发师以及周到的服务,尤其是开朗热情的理发师吉娜(奎因?莱提法 饰)十分受人欢迎。很快,美容院立刻引起了社区人们的注意,吸引了社区大部分的顾客,甚至连理发店的老顾客们也开始动摇,打算把脚挪到旁边的美容院去了。
      在美容院的竞争之下,刚刚缓过危机的卡尔文眼看着又要面临关门的危险,他们气恼地和美容院发生了一系列的争执,几乎闹得不可开交。
      此事未了,一波又起,有个大财团试图吞并芝加哥南部地区所有的服务业,他们开了咖啡店、录像出租店和连锁理发店,并且试图把所有家庭式经营的小店全部赶尽杀绝。为了共同的利益,卡尔文的理发店和吉娜的美容院很快停止争执,合力一起争取他们的利益了……
    1. Video
    2. ID                                       : 1
    3. Format                                   : AVC
    4. Format/Info                              : Advanced Video Codec
    5. Format profile                           : High@L4
    6. Format settings                          : CABAC / 4 Ref Frames
    7. Format settings, CABAC                   : Yes
    8. Format settings, Reference frames        : 4 frames
    9. Codec ID                                 : V_MPEG4/ISO/AVC
    10. Duration                                 : 1 h 45 min
    11. Bit rate                                 : 13.3 Mb/s
    12. Width                                    : 1 920 pixels
    13. Height                                   : 1 040 pixels
    14. Display aspect ratio                     : 1.85:1
    15. Frame rate mode                          : Constant
    16. Frame rate                               : 23.976 (24000/1001/189150) FPS
    17. Color space                              : YUV
    18. Chroma subsampling                       : 4:2:0
    19. Bit depth                                : 8 bits
    20. Scan type                                : Progressive
    21. Bits/(Pixel*Frame)                       : 0.277
    22. Stream size                              : 9.59 GiB (88%)
    23. Writing library                          : x264 core 157 r2932 303c484
    24. Encoding settings                        : cabac=1 / ref=4 / deblock=1:-3:-3 / analyse=0x3:0x113 / me=umh / subme=8 / psy=1 / psy_rd=1.10:0.00 / mixed_ref=1 / me_range=32 / chroma_me=1 / trellis=2 / 8x8dct=1 / cqm=0 / deadzone=21,11 / fast_pskip=1 / chroma_qp_offset=-2 / threads=32 / lookahead_threads=5 / sliced_threads=0 / nr=0 / decimate=1 / interlaced=0 / bluray_compat=0 / constrained_intra=0 / bframes=3 / b_pyramid=2 / b_adapt=2 / b_bias=0 / direct=3 / weightb=1 / open_gop=0 / weightp=2 / keyint=240 / keyint_min=24 / scenecut=40 / intra_refresh=0 / rc_lookahead=50 / rc=2pass / mbtree=1 / bitrate=13255 / ratetol=1.0 / qcomp=0.60 / qpmin=0 / qpmax=69 / qpstep=4 / cplxblur=20.0 / qblur=0.5 / ip_ratio=1.40 / aq=3:0.75
    25. Default                                  : Yes
    26. Forced                                   : No
    27. Statistics Tags Issue                    : no_variable_data 1970-01-01 00:00:00 / no_variable_data 2010-02-22 21:41:29
    28. FromStats_BitRate                        : 13250727
    29. FromStats_Duration                       : 01:45:59.186000000
    30. FromStats_FrameCount                     : 152468
    31. FromStats_StreamSize                     : 10532979739

    32. Audio
    33. ID                                       : 2
    34. Format                                   : DTS
    35. Format/Info                              : Digital Theater Systems
    36. Codec ID                                 : A_DTS
    37. Duration                                 : 1 h 45 min
    38. Bit rate mode                            : Constant
    39. Bit rate                                 : 1 509 kb/s
    40. Channel(s)                               : 6 channels
    41. Channel layout                           : C L R Ls Rs LFE
    42. Sampling rate                            : 48.0 kHz
    43. Frame rate                               : 93.750 FPS (512 SPF)
    44. Bit depth                                : 24 bits
    45. Compression mode                         : Lossy
    46. Stream size                              : 1.12 GiB (10%)
    47. Language                                 : English
    48. Default                                  : Yes
    49. Forced                                   : No
    50. Statistics Tags Issue                    : no_variable_data 1970-01-01 00:00:00 / no_variable_data 2010-02-22 21:41:29
    51. FromStats_BitRate                        : 1508999
    52. FromStats_Duration                       : 01:45:59.147000000
    53. FromStats_FrameCount                     : 596170
    54. FromStats_StreamSize                     : 1199494040

    55. Text
    56. ID                                       : 3
    57. Format                                   : UTF-8
    58. Codec ID                                 : S_TEXT/UTF8
    59. Codec ID/Info                            : UTF-8 Plain Text
    60. Language                                 : English
    61. Default                                  : No
    62. Forced                                   : No
    63. Statistics Tags Issue                    : no_variable_data 1970-01-01 00:00:00 / no_variable_data 2010-02-22 21:41:29
    64. FromStats_BitRate                        : 80
    65. FromStats_Duration                       : 01:40:14.638000000
    66. FromStats_FrameCount                     : 1650
    67. FromStats_StreamSize                     : 60381

    68. Menu
    69. 00:00:00.000                             : en:00:00:00.000
    70. 00:05:52.936                             : en:00:05:52.936
    71. 00:16:00.668                             : en:00:16:00.668
    72. 00:22:04.573                             : en:00:22:04.573
    73. 00:30:27.034                             : en:00:30:27.034
    74. 00:39:13.017                             : en:00:39:13.017
    75. 00:48:59.270                             : en:00:48:59.270
    76. 01:00:31.378                             : en:01:00:31.378
    77. 01:12:28.177                             : en:01:12:28.177
    78. 01:22:29.278                             : en:01:22:29.278
    79. 01:32:23.621                             : en:01:32:23.621
    80. 01:41:08.145                             : en:01:41:08.145
    复制代码

    哈啦大发师2/理发店2 Barbershop.2.Back.in.Business.2004.1080p.BluRay.x264-PSYCHD 10.93GB-2.jpeg

    本帖隐藏的内容需要注册登陆才可浏览,您需要注册才可浏览,点击这里注册




    大中午的快困死蓝光君了
    回复

    使用道具 举报

    该用户从未签到

    0

    主题

    606

    帖子

    477

    积分

    中级会员

    Rank: 3Rank: 3

    积分
    477
    发表于 5 天前 | 显示全部楼层
    回复 支持 反对

    使用道具 举报

    该用户从未签到

    0

    主题

    1437

    帖子

    42

    积分

    新手上路

    Rank: 1

    积分
    42
    发表于 5 天前 | 显示全部楼层
    这个帖子不回对不起自己!我想我是一天也不能离开蓝光电影网
    回复 支持 反对

    使用道具 举报

    该用户从未签到

    0

    主题

    1万

    帖子

    1万

    积分

    论坛元老

    Rank: 8Rank: 8

    积分
    10891
    发表于 5 天前 | 显示全部楼层
    回复 支持 反对

    使用道具 举报

  • TA的每日心情
    开心
    昨天 16:38
  • 签到天数: 13 天

    [LV.3]偶尔看看II

    2

    主题

    18

    帖子

    152

    积分

    注册会员

    Rank: 2

    积分
    152
    发表于 5 天前 | 显示全部楼层
    楼主发贴辛苦了,谢谢楼主分享!我觉得蓝光电影网是注册对了!
    回复 支持 反对

    使用道具 举报

    该用户从未签到

    0

    主题

    1万

    帖子

    1万

    积分

    论坛元老

    Rank: 8Rank: 8

    积分
    11956
    发表于 5 天前 | 显示全部楼层
    感谢楼主的无私分享!要想蓝光高清电影网好 就靠你我他
    回复 支持 反对

    使用道具 举报

    该用户从未签到

    0

    主题

    2万

    帖子

    1万

    积分

    论坛元老

    Rank: 8Rank: 8

    积分
    17501
    发表于 4 天前 | 显示全部楼层
    回复 支持 反对

    使用道具 举报

    该用户从未签到

    0

    主题

    2万

    帖子

    1万

    积分

    论坛元老

    Rank: 8Rank: 8

    积分
    17501
    发表于 4 天前 | 显示全部楼层

    是个好电影!必须要看的!多谢分享!
    回复 支持 反对

    使用道具 举报

    该用户从未签到

    0

    主题

    2万

    帖子

    1万

    积分

    论坛元老

    Rank: 8Rank: 8

    积分
    17501
    发表于 4 天前 | 显示全部楼层
    回复 支持 反对

    使用道具 举报

  • TA的每日心情
    开心
    昨天 07:32
  • 签到天数: 14 天

    [LV.3]偶尔看看II

    0

    主题

    91

    帖子

    176

    积分

    注册会员

    Rank: 2

    积分
    176
    发表于 4 天前 | 显示全部楼层
    回复 支持 反对

    使用道具 举报

    懒得打字嘛,点击右侧快捷回复 【右侧内容,后台自定义】
    您需要登录后才可以回帖 登录 | 立即注册

    本版积分规则

    郑重声明,本站所有作品片源来自互联网公开渠道,均为网友上传交流学习,影视版权均归原电影公司所有,如有侵犯版权,请与 2322694662@qq.com 联系,我们将立即删除。

    小黑屋|手机版|Archiver|百度统计|投诉|蓝光电影下载

    GMT+8, 2021-2-27 05:34 , Processed in 0.076277 second(s), 25 queries , Gzip On, MemCached On.

    Powered by Discuz! X3.4

    © 2001-2013 Comsenz Inc.

    快速回复 返回顶部 返回列表