快捷导航
查看: 33|回复: 13

[剧情] 平常的心/常人之心 The.Normal.Heart.2014.1080p.BluRay.x264-PSYCHD 9.84GB

[复制链接]
  • TA的每日心情
    开心
    昨天 21:17
  • 签到天数: 14 天

    [LV.3]偶尔看看II

    441

    主题

    479

    帖子

    1104

    积分

    发布组

    积分
    1104
    发表于 5 天前 | 显示全部楼层 |阅读模式
    1. 帖子完整标题:平常的心/常人之心 The.Normal.Heart.2014.1080p.BluRay.x264-PSYCHD 9.84GB
    复制代码



    译  名 平常的心 / 常人之心(台) / 平常心
    片  名 The Normal Heart
    年  代 2014
    产  地 美国
    类  别 剧情 / 同性 / 历史
    语  言 英语
    上映日期 2014-05-25(美国)
    IMDb评分  7.9/10 from 32873 users
    IMDb链接  https://www.imdb.com/title/tt1684226
    豆瓣评分 8.4/10 from 47377 users
    豆瓣链接 https://movie.douban.com/subject/6776051/
    片  长 133分钟
    导  演 瑞恩·墨菲 Ryan Murphy
    编  剧 拉里·克莱默 Larry Kramer
    主  演 马克·鲁弗洛 Mark Ruffalo
           马修·波莫 Matt Bomer
           吉姆·帕森斯 Jim Parsons
           乔纳森·格罗夫 Jonathan Groff
           朱莉娅·罗伯茨 Julia Roberts
           阿尔弗雷德·莫里纳 Alfred Molina
           泰勒·克奇 Taylor Kitsch
           丹尼斯·欧哈拉 Denis O'Hare
           乔·曼特罗 Joe Mantello
           芬·维特洛克 Finn Wittrock


    标  签 同性 | 美国 | 剧情 | 2014 | 艾滋 | 人性 | 爱情 | LGBT

    简  介   

      1981年,艾滋作为一种前所未见的免疫系统缺陷疾病在纽约出现。由于它集中发生在男同性恋当中,所以在当时又被称为“同志病”。内德(马克·鲁弗洛 Mark Ruffalo 饰)是一个激进的同志作家,当他看着朋友纷纷死去以及政府的不作为时,义愤填膺的他发起了男同健康危机组织, 呼吁政府和社会公众对这场即将爆发的大瘟疫给予重视。半身瘫痪的女医生艾玛(朱莉娅·罗伯茨 Julia Roberts 饰)是少数从一开始就高度警惕艾滋疫情的的医护人员,也是内德重要的异性恋盟友。在运动中内德认识了纽约时报记者菲尼克斯(马修·波莫 Matt Bomer 饰),两人陷入如火如荼的热恋。然而菲尼克斯最终也被确诊感染,悲痛的内德惟有爱人和事业两线作战。健康危机组织的主席布鲁斯(泰勒·克奇 Taylor Kitsch 饰)虽然是内德最好的朋友,然而深柜的他行事风格与好斗的内德截然相反。执行董事汤米(吉姆·帕森斯 Jim Parsons 饰)一直试图平衡两人,却无法消弭越来越大的分歧,一场决裂迫在眉睫。而此刻已是艾滋在美国蔓延的第四个年头......
      HBO电视电影《平常的心》改编自托尼奖同名戏剧,作者拉里·克莱默亲身经历了80年代的艾滋风暴,他以自己为原型,将纽约同性恋人群以及艾滋病人的生活和感悟写进剧本。电影不但描绘了早期艾滋运动的真实和复杂面貌,而且呈现了同志争取权益的曲折与必要性。无论身处怎样的时代和环境,去爱、去追求爱都应该与生俱来的权利。

    获奖情况  

      第72届金球奖(2015)
      电视类 最佳限定剧/电视电影(提名)
      电视类 限定剧/电视电影最佳男主角(提名) 马克·鲁弗洛
      电视类 最佳男配角 马特·波莫

      第66届黄金时段艾美奖(2014)
      迷你剧/电视电影 最佳电视电影
      迷你剧/电视电影 最佳男主角(提名) 马克·鲁弗洛
      迷你剧/电视电影 最佳男配角(提名) 乔·曼特罗 / 阿尔弗雷德·莫里纳 / 马特·波莫 / 吉姆·帕森斯
      迷你剧/电视电影 最佳女配角(提名) 朱莉娅·罗伯茨

      第67届美国导演工会奖(2015)
      最佳电视电影/限定剧导演(提名) 瑞恩·墨菲

      第21届美国演员工会奖(2015)
      电视奖 电视电影/迷你剧最佳男演员 马克·鲁弗洛
      电视奖 电视电影/迷你剧最佳女演员(提名) 朱莉娅·罗伯茨
    1. Video
    2. ID                                       : 1
    3. Format                                   : AVC
    4. Format/Info                              : Advanced Video Codec
    5. Format profile                           : High@L4
    6. Format settings                          : CABAC / 4 Ref Frames
    7. Format settings, CABAC                   : Yes
    8. Format settings, Reference frames        : 4 frames
    9. Codec ID                                 : V_MPEG4/ISO/AVC
    10. Duration                                 : 2 h 12 min
    11. Bit rate                                 : 9 113 kb/s
    12. Width                                    : 1 920 pixels
    13. Height                                   : 1 080 pixels
    14. Display aspect ratio                     : 16:9
    15. Frame rate mode                          : Constant
    16. Frame rate                               : 23.976 (24000/1001/189150) FPS
    17. Color space                              : YUV
    18. Chroma subsampling                       : 4:2:0
    19. Bit depth                                : 8 bits
    20. Scan type                                : Progressive
    21. Bits/(Pixel*Frame)                       : 0.183
    22. Stream size                              : 8.25 GiB (84%)
    23. Writing library                          : x264 core 142 r2453 ea0ca51
    24. Encoding settings                        : cabac=1 / ref=4 / deblock=1:-3:-3 / analyse=0x3:0x113 / me=umh / subme=8 / psy=1 / psy_rd=1.00:0.00 / mixed_ref=1 / me_range=16 / chroma_me=1 / trellis=1 / 8x8dct=1 / cqm=0 / deadzone=21,11 / fast_pskip=1 / chroma_qp_offset=-2 / threads=18 / lookahead_threads=3 / sliced_threads=0 / nr=0 / decimate=1 / interlaced=0 / bluray_compat=0 / constrained_intra=0 / bframes=3 / b_pyramid=2 / b_adapt=2 / b_bias=0 / direct=3 / weightb=1 / open_gop=0 / weightp=2 / keyint=240 / keyint_min=24 / scenecut=40 / intra_refresh=0 / rc_lookahead=50 / rc=2pass / mbtree=1 / bitrate=9113 / ratetol=1.0 / qcomp=0.60 / qpmin=0 / qpmax=69 / qpstep=4 / cplxblur=20.0 / qblur=0.5 / ip_ratio=1.40 / aq=1:1.00
    25. Language                                 : English
    26. Default                                  : Yes
    27. Forced                                   : No

    28. Audio
    29. ID                                       : 2
    30. Format                                   : DTS
    31. Format/Info                              : Digital Theater Systems
    32. Codec ID                                 : A_DTS
    33. Duration                                 : 2 h 12 min
    34. Bit rate mode                            : Constant
    35. Bit rate                                 : 1 509 kb/s
    36. Channel(s)                               : 6 channels
    37. ChannelLayout_Original                   : C L R Ls Rs LFE
    38. Sampling rate                            : 48.0 kHz
    39. Frame rate                               : 93.750 FPS (512 SPF)
    40. Bit depth                                : 24 bits
    41. Compression mode                         : Lossy
    42. Stream size                              : 1.40 GiB (14%)
    43. Language                                 : English
    44. Default                                  : Yes
    45. Forced                                   : No

    46. Text #1
    47. ID                                       : 3
    48. Format                                   : UTF-8
    49. Codec ID                                 : S_TEXT/UTF8
    50. Codec ID/Info                            : UTF-8 Plain Text
    51. Title                                    : SDH
    52. Language                                 : English
    53. Default                                  : No
    54. Forced                                   : No

    55. Text #2
    56. ID                                       : 4
    57. Format                                   : UTF-8
    58. Codec ID                                 : S_TEXT/UTF8
    59. Codec ID/Info                            : UTF-8 Plain Text
    60. Language                                 : English
    61. Default                                  : No
    62. Forced                                   : No

    63. Menu
    64. 00:00:00.000                             : en:00:00:00.000
    65. 00:13:09.622                             : en:00:13:09.622
    66. 00:21:43.010                             : en:00:21:43.010
    67. 00:33:41.144                             : en:00:33:41.144
    68. 00:43:22.016                             : en:00:43:22.016
    69. 00:56:43.734                             : en:00:56:43.734
    70. 01:06:56.804                             : en:01:06:56.804
    71. 01:17:34.441                             : en:01:17:34.441
    72. 01:25:35.422                             : en:01:25:35.422
    73. 01:36:46.009                             : en:01:36:46.009
    74. 01:48:35.592                             : en:01:48:35.592
    75. 01:57:54.317                             : en:01:57:54.317
    76. 02:07:52.874                             : en:02:07:52.874
    复制代码






    本帖隐藏的内容需要注册登陆才可浏览,您需要注册才可浏览,点击这里注册



    平常的心/常人之心 The.Normal.Heart.2014.1080p.BluRay.x264-PSYCHD 9.84GB-1.jpeg
    平常的心/常人之心 The.Normal.Heart.2014.1080p.BluRay.x264-PSYCHD 9.84GB-2.png
    平常的心/常人之心 The.Normal.Heart.2014.1080p.BluRay.x264-PSYCHD 9.84GB-3.png
    回复

    使用道具 举报

    该用户从未签到

    0

    主题

    1021

    帖子

    920

    积分

    高级会员

    Rank: 4

    积分
    920
    发表于 5 天前 | 显示全部楼层
    回复 支持 反对

    使用道具 举报

    该用户从未签到

    0

    主题

    2万

    帖子

    1万

    积分

    论坛元老

    Rank: 8Rank: 8

    积分
    17501
    发表于 5 天前 | 显示全部楼层
    回复 支持 反对

    使用道具 举报

    该用户从未签到

    0

    主题

    722

    帖子

    535

    积分

    高级会员

    Rank: 4

    积分
    535
    发表于 5 天前 | 显示全部楼层
    这个帖子不回对不起自己!我想我是一天也不能离开蓝光电影网
    回复 支持 反对

    使用道具 举报

  • TA的每日心情
    开心
    2021-2-11 08:23
  • 签到天数: 8 天

    [LV.3]偶尔看看II

    1

    主题

    1256

    帖子

    1393

    积分

    VIP

    积分
    1393
    发表于 5 天前 | 显示全部楼层
    楼主太厉害了!楼主,电影应该很好看我觉得蓝光电影下载真是个好地方!
    回复 支持 反对

    使用道具 举报

    该用户从未签到

    0

    主题

    2万

    帖子

    1万

    积分

    论坛元老

    Rank: 8Rank: 8

    积分
    17501
    发表于 4 天前 | 显示全部楼层

    非常精彩的电影,下来收藏,感谢楼主
    回复 支持 反对

    使用道具 举报

    该用户从未签到

    0

    主题

    1万

    帖子

    1万

    积分

    论坛元老

    Rank: 8Rank: 8

    积分
    11956
    发表于 4 天前 | 显示全部楼层
    感谢楼主的无私分享!要想蓝光高清电影网好 就靠你我他
    回复 支持 反对

    使用道具 举报

    该用户从未签到

    0

    主题

    722

    帖子

    535

    积分

    高级会员

    Rank: 4

    积分
    535
    发表于 4 天前 | 显示全部楼层

    是个好电影!必须要看的!多谢分享!
    回复 支持 反对

    使用道具 举报

  • TA的每日心情
    开心
    昨天 07:32
  • 签到天数: 14 天

    [LV.3]偶尔看看II

    0

    主题

    91

    帖子

    176

    积分

    注册会员

    Rank: 2

    积分
    176
    发表于 4 天前 | 显示全部楼层
    回复 支持 反对

    使用道具 举报

    该用户从未签到

    0

    主题

    1019

    帖子

    997

    积分

    金牌会员

    Rank: 6Rank: 6

    积分
    997
    发表于 4 天前 | 显示全部楼层
    回复 支持 反对

    使用道具 举报

    懒得打字嘛,点击右侧快捷回复 【右侧内容,后台自定义】
    您需要登录后才可以回帖 登录 | 立即注册

    本版积分规则

    郑重声明,本站所有作品片源来自互联网公开渠道,均为网友上传交流学习,影视版权均归原电影公司所有,如有侵犯版权,请与 2322694662@qq.com 联系,我们将立即删除。

    小黑屋|手机版|Archiver|百度统计|投诉|蓝光电影下载

    GMT+8, 2021-2-27 04:59 , Processed in 0.090961 second(s), 26 queries , Gzip On, MemCached On.

    Powered by Discuz! X3.4

    © 2001-2013 Comsenz Inc.

    快速回复 返回顶部 返回列表