快捷导航
查看: 1122|回复: 31

[记录] 森林中的女巫 Witches.in.the.Woods.2019.720p.BluRay.x264-PussyFoot 1.87GB

[复制链接]
  • TA的每日心情
    开心
    前天 17:46
  • 签到天数: 247 天

    [LV.8]以坛为家I

    1万

    主题

    1万

    帖子

    10万

    积分

    管理员

    蓝光君

    Rank: 9Rank: 9Rank: 9

    积分
    102476

    活跃会员热心会员推广达人突出贡献优秀版主荣誉管理论坛元老

    QQ
    发表于 2021-3-21 11:26:29 | 显示全部楼层 |阅读模式
    1. 帖子完整标题:森林中的女巫 Witches.in.the.Woods.2019.720p.BluRay.x264-PussyFoot 1.87GB
    复制代码
    森林中的女巫 Witches.in.the.Woods.2019.720p.BluRay.x264-PussyFoot 1.87GB-1.jpeg


    译  名 森林中的女巫/Stranded
    片  名 Witches in the Woods
    年  代 2019
    产  地 加拿大
    类  别 悬疑 / 惊悚 / 恐怖
    语  言 英语
    上映日期 2019-08-25(巴西)
    IMDb评分  4.1/10 from 818 users
    IMDb链接  https://www.imdb.com/title/tt8354344/
    豆瓣评分 /10 from 0 users
    豆瓣链接 https://movie.douban.com/subject/34457950/
    片  长 90分钟
    编  剧 克里斯托弗·博雷利 Christopher Borrelli
    主  演 汉娜·卡苏拉卡 Hannah Kasulka
           Alexander De Jordy
           科宾·布鲁 Corbin Bleu

    标  签 惊悚 | 悬疑 | 恐怖 | 电影 | 民间神怪吸血鬼狼人巫师等系列 | 加拿大电影

    简  介

      Jill (Hannah Kasulka), a tenacious UMass student, abandons her studies for an off-the-grid snowboarding trip in Stoughton Valley, Massachusetts.Unfortunately, after the sun has dipped below the horizon, the group’s SUV becomes mysteriously lost in the freshly-logged mountains, eventually running out of gas.As temperatures fall, the group dynamic unravels as a virtual and then a literal witch hunt begins…
    1. Video
    2. ID                                       : 1
    3. Format                                   : AVC
    4. Format/Info                              : Advanced Video Codec
    5. Format profile                           : High@L4
    6. Format settings                          : CABAC / 8 Ref Frames
    7. Format settings, CABAC                   : Yes
    8. Format settings, Reference frames        : 8 frames
    9. Codec ID                                 : V_MPEG4/ISO/AVC
    10. Duration                                 : 1 h 30 min
    11. Bit rate                                 : 2 310 kb/s
    12. Width                                    : 1 280 pixels
    13. Height                                   : 536 pixels
    14. Display aspect ratio                     : 2.40:1
    15. Frame rate mode                          : Constant
    16. Frame rate                               : 23.976 (24000/1001/189150) FPS
    17. Color space                              : YUV
    18. Chroma subsampling                       : 4:2:0
    19. Bit depth                                : 8 bits
    20. Scan type                                : Progressive
    21. Bits/(Pixel*Frame)                       : 0.140
    22. Stream size                              : 1.46 GiB (78%)
    23. Writing library                          : x264 core 161 r3018 db0d417
    24. Encoding settings                        : cabac=1 / ref=8 / deblock=1:-3:-3 / analyse=0x3:0x133 / me=umh / subme=9 / psy=1 / psy_rd=1.00:0.00 / mixed_ref=1 / me_range=16 / chroma_me=1 / trellis=2 / 8x8dct=1 / cqm=0 / deadzone=21,11 / fast_pskip=0 / chroma_qp_offset=-2 / threads=17 / lookahead_threads=1 / sliced_threads=0 / nr=0 / decimate=1 / interlaced=0 / bluray_compat=0 / constrained_intra=0 / bframes=3 / b_pyramid=2 / b_adapt=2 / b_bias=0 / direct=3 / weightb=1 / open_gop=0 / weightp=2 / keyint=250 / keyint_min=23 / scenecut=40 / intra_refresh=0 / rc_lookahead=60 / rc=crf / mbtree=1 / crf=17.0 / qcomp=0.60 / qpmin=0 / qpmax=69 / qpstep=4 / ip_ratio=1.40 / aq=1:1.00
    25. Language                                 : English
    26. Default                                  : Yes
    27. Forced                                   : No

    28. Audio
    29. ID                                       : 2
    30. Format                                   : AC-3
    31. Format/Info                              : Audio Coding 3
    32. Commercial name                          : Dolby Digital
    33. Codec ID                                 : A_AC3
    34. Duration                                 : 1 h 30 min
    35. Bit rate mode                            : Constant
    36. Bit rate                                 : 640 kb/s
    37. Channel(s)                               : 6 channels
    38. Channel layout                           : L R C LFE Ls Rs
    39. Sampling rate                            : 48.0 kHz
    40. Frame rate                               : 31.250 FPS (1536 SPF)
    41. Compression mode                         : Lossy
    42. Stream size                              : 415 MiB (22%)
    43. Language                                 : English
    44. Service kind                             : Complete Main
    45. Default                                  : Yes
    46. Forced                                   : No

    47. Text
    48. ID                                       : 3
    49. Format                                   : PGS
    50. Muxing mode                              : zlib
    51. Codec ID                                 : S_HDMV/PGS
    52. Codec ID/Info                            : Picture based subtitle format used on BDs/HD-DVDs
    53. Duration                                 : 1 h 23 min
    54. Bit rate                                 : 17.6 kb/s
    55. Count of elements                        : 1330
    56. Stream size                              : 10.4 MiB (1%)
    57. Language                                 : German
    58. Default                                  : No
    59. Forced                                   : No

    60. Menu
    61. 00:00:00.000                             : :Kapitel 01
    62. 00:03:06.144                             : :Kapitel 02
    63. 00:08:50.155                             : :Kapitel 03
    64. 00:13:43.239                             : :Kapitel 04
    65. 00:23:43.005                             : :Kapitel 05
    66. 00:33:02.606                             : :Kapitel 06
    67. 00:43:34.445                             : :Kapitel 07
    68. 00:54:40.986                             : :Kapitel 08
    69. 00:59:38.867                             : :Kapitel 09
    70. 01:05:39.102                             : :Kapitel 10
    71. 01:16:30.002                             : :Kapitel 11
    72. 01:26:24.971                             : :Kapitel 12
    复制代码

    森林中的女巫 Witches.in.the.Woods.2019.720p.BluRay.x264-PussyFoot 1.87GB-2.jpeg

    游客,如果您要查看本帖隐藏内容请回复




    大中午的快困死蓝光君了
    回复

    使用道具 举报

    该用户从未签到

    0

    主题

    2万

    帖子

    2万

    积分

    论坛元老

    Rank: 8Rank: 8

    积分
    25556
    发表于 2021-3-21 11:26:38 | 显示全部楼层
    楼主太厉害了!楼主,电影应该很好看我觉得蓝光电影下载真是个好地方!
    回复 支持 反对

    使用道具 举报

    该用户从未签到

    0

    主题

    1万

    帖子

    1万

    积分

    论坛元老

    Rank: 8Rank: 8

    积分
    16777
    发表于 2021-3-21 12:52:20 | 显示全部楼层
    回复 支持 反对

    使用道具 举报

    该用户从未签到

    0

    主题

    2万

    帖子

    2万

    积分

    论坛元老

    Rank: 8Rank: 8

    积分
    25556
    发表于 2021-3-21 14:13:14 | 显示全部楼层

    是个好电影!必须要看的!多谢分享!
    回复 支持 反对

    使用道具 举报

    该用户从未签到

    0

    主题

    1万

    帖子

    1万

    积分

    论坛元老

    Rank: 8Rank: 8

    积分
    15691
    发表于 2021-3-21 17:35:17 | 显示全部楼层
    感谢楼主的无私分享!要想蓝光高清电影网好 就靠你我他
    回复 支持 反对

    使用道具 举报

    该用户从未签到

    0

    主题

    1577

    帖子

    1051

    积分

    金牌会员

    Rank: 6Rank: 6

    积分
    1051
    发表于 2021-3-21 19:22:27 | 显示全部楼层

    非常精彩的电影,下来收藏,感谢楼主
    回复 支持 反对

    使用道具 举报

    该用户从未签到

    0

    主题

    4794

    帖子

    2186

    积分

    金牌会员

    Rank: 6Rank: 6

    积分
    2186
    发表于 2021-3-21 23:18:29 | 显示全部楼层
    回复 支持 反对

    使用道具 举报

    该用户从未签到

    0

    主题

    585

    帖子

    10

    积分

    新手上路

    Rank: 1

    积分
    10
    发表于 2021-3-22 08:05:08 | 显示全部楼层
    回复 支持 反对

    使用道具 举报

    该用户从未签到

    0

    主题

    1万

    帖子

    1万

    积分

    论坛元老

    Rank: 8Rank: 8

    积分
    15691
    发表于 2021-3-22 17:39:55 | 显示全部楼层
    回复 支持 反对

    使用道具 举报

    该用户从未签到

    0

    主题

    4202

    帖子

    3563

    积分

    论坛元老

    Rank: 8Rank: 8

    积分
    3563
    发表于 2021-3-23 19:51:23 | 显示全部楼层
    这个帖子不回对不起自己!我想我是一天也不能离开蓝光电影网
    回复 支持 反对

    使用道具 举报

    懒得打字嘛,点击右侧快捷回复 【右侧内容,后台自定义】
    您需要登录后才可以回帖 登录 | 立即注册

    本版积分规则

    郑重声明,本站所有作品片源来自互联网公开渠道,均为网友上传交流学习,影视版权均归原电影公司所有,如有侵犯版权,请与 2322694662@qq.com 联系,我们将立即删除。

    小黑屋|手机版|Archiver|百度统计|投诉|蓝光电影下载

    GMT+8, 2021-6-22 15:19 , Processed in 0.026614 second(s), 23 queries , Gzip On, MemCached On.

    Powered by Discuz! X3.4

    © 2001-2013 Comsenz Inc.

    快速回复 返回顶部 返回列表