快捷导航
查看: 49|回复: 12

[爱情] 美国之子 American.Son.2008.1080p.BluRay.x264-LCHD 6.55GB

[复制链接]
  • TA的每日心情
    无聊
    2021-4-27 18:29
  • 签到天数: 45 天

    [LV.5]常住居民I

    1144

    主题

    1191

    帖子

    2332

    积分

    发布组

    积分
    2332
    发表于 2021-3-26 18:13:12 | 显示全部楼层 |阅读模式
    1. 帖子完整标题:美国之子 American.Son.2008.1080p.BluRay.x264-LCHD 6.55GB
    复制代码



    译  名 美国之子
    片  名 American Son
    年  代 2008
    产  地 美国
    类  别 剧情 / 爱情 / 战争
    语  言 英语
    上映日期 2008-06-13
    IMDb评分  5.7/10 from 786 users
    IMDb链接  https://www.imdb.com/title/tt1037004
    豆瓣评分 0/10 from 0 users
    豆瓣链接 https://movie.douban.com/subject/2981805/
    片  长 USA: 90 分钟(Sundance Film Festival)
    导  演 Neil Abramson
    主  演 Nick Cannon
           Melonie Diaz
           Matt O'Leary
           Tom Sizemore
           April Grace


    标  签 美国 | 美国之子 | 剧情 | 豫荐 | 生活 | 爱情 | 欧美电影 | 战争

    简  介   

      19岁的迈克即将前往伊拉克服役,他回到家乡打算在那里度过最后的一点和平时光,却发现随着时间的流逝,自己跟以前的好友已经产生了隔膜。与此同时,迈克爱上了一个女孩,然而这段感情苦乐参半,因为即将赶赴伊拉克的他,总是担心自己再也不会回来……
    1. Video
    2. ID                                       : 1
    3. Format                                   : AVC
    4. Format/Info                              : Advanced Video Codec
    5. Format profile                           : High@L4
    6. Format settings                          : CABAC / 4 Ref Frames
    7. Format settings, CABAC                   : Yes
    8. Format settings, Reference frames        : 4 frames
    9. Codec ID                                 : V_MPEG4/ISO/AVC
    10. Duration                                 : 1 h 25 min
    11. Bit rate                                 : 9 476 kb/s
    12. Width                                    : 1 920 pixels
    13. Height                                   : 1 080 pixels
    14. Display aspect ratio                     : 16:9
    15. Frame rate mode                          : Constant
    16. Frame rate                               : 23.976 (24000/1001/189150) FPS
    17. Color space                              : YUV
    18. Chroma subsampling                       : 4:2:0
    19. Bit depth                                : 8 bits
    20. Scan type                                : Progressive
    21. Bits/(Pixel*Frame)                       : 0.191
    22. Stream size                              : 5.52 GiB (84%)
    23. Writing library                          : x264 core 130 r2273 b3065e6
    24. Encoding settings                        : cabac=1 / ref=4 / deblock=1:-1:-1 / analyse=0x3:0x113 / me=umh / subme=7 / psy=1 / psy_rd=1.00:0.00 / mixed_ref=1 / me_range=16 / chroma_me=1 / trellis=1 / 8x8dct=1 / cqm=0 / deadzone=21,11 / fast_pskip=1 / chroma_qp_offset=-2 / threads=12 / lookahead_threads=2 / sliced_threads=0 / nr=0 / decimate=1 / interlaced=0 / bluray_compat=0 / constrained_intra=0 / bframes=3 / b_pyramid=2 / b_adapt=2 / b_bias=0 / direct=3 / weightb=1 / open_gop=0 / weightp=2 / keyint=250 / keyint_min=23 / scenecut=40 / intra_refresh=0 / rc_lookahead=40 / rc=2pass / mbtree=1 / bitrate=9476 / ratetol=1.0 / qcomp=0.60 / qpmin=0 / qpmax=69 / qpstep=4 / cplxblur=20.0 / qblur=0.5 / vbv_maxrate=50000 / vbv_bufsize=50000 / nal_hrd=none / ip_ratio=1.40 / aq=1:1.00
    25. Language                                 : English
    26. Default                                  : Yes
    27. Forced                                   : No

    28. Audio
    29. ID                                       : 2
    30. Format                                   : DTS
    31. Format/Info                              : Digital Theater Systems
    32. Codec ID                                 : A_DTS
    33. Duration                                 : 1 h 25 min
    34. Bit rate mode                            : Constant
    35. Bit rate                                 : 1 509 kb/s
    36. Channel(s)                               : 6 channels
    37. Channel layout                           : C L R Ls Rs LFE
    38. Sampling rate                            : 48.0 kHz
    39. Frame rate                               : 93.750 FPS (512 SPF)
    40. Bit depth                                : 24 bits
    41. Compression mode                         : Lossy
    42. Stream size                              : 921 MiB (14%)
    43. Language                                 : English
    44. Default                                  : Yes
    45. Forced                                   : No
    复制代码







    本帖隐藏的内容需要VIP会员才可浏览,您需要升级才可浏览,点击这里升级VIP





    美国之子 American.Son.2008.1080p.BluRay.x264-LCHD 6.55GB-1.png
    美国之子 American.Son.2008.1080p.BluRay.x264-LCHD 6.55GB-2.png
    美国之子 American.Son.2008.1080p.BluRay.x264-LCHD 6.55GB-3.png
    美国之子 American.Son.2008.1080p.BluRay.x264-LCHD 6.55GB-4.png
    美国之子 American.Son.2008.1080p.BluRay.x264-LCHD 6.55GB-5.png
    美国之子 American.Son.2008.1080p.BluRay.x264-LCHD 6.55GB-6.png
    回复

    使用道具 举报

    该用户从未签到

    0

    主题

    3681

    帖子

    2875

    积分

    金牌会员

    Rank: 6Rank: 6

    积分
    2875
    发表于 2021-3-26 19:13:18 | 显示全部楼层
    回复 支持 反对

    使用道具 举报

    该用户从未签到

    0

    主题

    1万

    帖子

    1万

    积分

    论坛元老

    Rank: 8Rank: 8

    积分
    14259
    发表于 2021-3-27 00:00:32 | 显示全部楼层

    非常精彩的电影,下来收藏,感谢楼主
    回复 支持 反对

    使用道具 举报

    该用户从未签到

    0

    主题

    1万

    帖子

    1万

    积分

    论坛元老

    Rank: 8Rank: 8

    积分
    14259
    发表于 2021-3-27 00:02:25 | 显示全部楼层
    回复 支持 反对

    使用道具 举报

    该用户从未签到

    0

    主题

    3681

    帖子

    2875

    积分

    金牌会员

    Rank: 6Rank: 6

    积分
    2875
    发表于 2021-3-27 02:13:16 | 显示全部楼层
    这个帖子不回对不起自己!我想我是一天也不能离开蓝光电影网
    回复 支持 反对

    使用道具 举报

    该用户从未签到

    0

    主题

    1万

    帖子

    1万

    积分

    论坛元老

    Rank: 8Rank: 8

    积分
    14219
    发表于 2021-3-27 08:49:29 | 显示全部楼层

    是个好电影!必须要看的!多谢分享!
    回复 支持 反对

    使用道具 举报

    该用户从未签到

    0

    主题

    3809

    帖子

    2888

    积分

    金牌会员

    Rank: 6Rank: 6

    积分
    2888
    发表于 2021-3-27 12:00:37 | 显示全部楼层
    回复 支持 反对

    使用道具 举报

    该用户从未签到

    0

    主题

    1160

    帖子

    890

    积分

    高级会员

    Rank: 4

    积分
    890
    发表于 2021-3-27 19:43:55 | 显示全部楼层
    回复 支持 反对

    使用道具 举报

    该用户从未签到

    0

    主题

    2万

    帖子

    2万

    积分

    论坛元老

    Rank: 8Rank: 8

    积分
    22944
    发表于 2021-4-9 08:04:48 | 显示全部楼层
    楼主太厉害了!楼主,电影应该很好看我觉得蓝光电影下载真是个好地方!
    回复 支持 反对

    使用道具 举报

    该用户从未签到

    0

    主题

    1万

    帖子

    1万

    积分

    论坛元老

    Rank: 8Rank: 8

    积分
    14259
    发表于 2021-4-10 09:45:22 | 显示全部楼层
    回复 支持 反对

    使用道具 举报

    懒得打字嘛,点击右侧快捷回复 【右侧内容,后台自定义】
    您需要登录后才可以回帖 登录 | 立即注册

    本版积分规则

    郑重声明,本站所有作品片源来自互联网公开渠道,均为网友上传交流学习,影视版权均归原电影公司所有,如有侵犯版权,请与 2322694662@qq.com 联系,我们将立即删除。

    小黑屋|手机版|Archiver|百度统计|投诉|蓝光电影下载

    GMT+8, 2021-5-11 12:13 , Processed in 0.063366 second(s), 23 queries , Gzip On, MemCached On.

    Powered by Discuz! X3.4

    © 2001-2013 Comsenz Inc.

    快速回复 返回顶部 返回列表