快捷导航
查看: 38|回复: 12

[喜剧] 哈拉十诫/十 The.Ten.2007.1080p.BluRay.x264-LCHD 6.56GB

[复制链接]
  • TA的每日心情

    2021-4-27 18:29
  • 签到天数: 36 天

    [LV.5]常住居民I

    1162

    主题

    1198

    帖子

    2060

    积分

    发布组

    积分
    2060
    发表于 2021-3-26 18:25:50 | 显示全部楼层 |阅读模式
    1. 帖子完整标题:哈拉十诫/十 The.Ten.2007.1080p.BluRay.x264-LCHD 6.56GB
    复制代码



    译  名 哈拉十诫 / 十 / 十诫 / 爱情十贱事
    片  名 The Ten
    年  代 2007
    产  地 美国 / 墨西哥
    类  别 喜剧
    语  言 英语 / 西班牙语
    上映日期 2007-08-03
    IMDb评分  5.0/10 from 16194 users
    IMDb链接  https://www.imdb.com/title/tt0811106
    豆瓣评分 6.5/10 from 8158 users
    豆瓣链接 https://movie.douban.com/subject/1824412/
    片  长 96 分钟
    导  演 David Wain
    编  剧 Ken Marino / David Wain
    主  演 Paul Rudd
           Adam Brody
           Jon Hamm
           Winona Ryder
           Ken Marino
           Famke Janssen
           Liev Schreiber
           Justin Theroux
           Jessica Alba


    标  签 喜剧 | 美国 | 十诫 | 美国电影 | 2007 | 电影 | 剧情 | jessicaalba

    简  介   

      影片彻底颠覆了经典《十诫》的“人神契约”,由10个相互独立又彼此相关的幽默小故事串联而成。贯穿始末的叙述者,用戏谑的口吻向观众娓娓道来这十个令人瞠目结舌的短篇:一个忘背伞包却奇迹生还的跳伞男子,居然瞬间成为电视明星;一个把自己处子之身献给耶稣的老处女;一个不告诉儿子生父是谁的母亲;一个拿病人生命开玩笑的医生,在下一章节被抓入狱,遭受性虐待却被视为稀松平常之事……叙述者一直置身事外的讲述这段段荒诞不经的故事,直到他“通奸”的故事上演。
    1. Video
    2. ID                                       : 1
    3. Format                                   : AVC
    4. Format/Info                              : Advanced Video Codec
    5. Format profile                           : High@L4
    6. Format settings                          : CABAC / 4 Ref Frames
    7. Format settings, CABAC                   : Yes
    8. Format settings, Reference frames        : 4 frames
    9. Codec ID                                 : V_MPEG4/ISO/AVC
    10. Duration                                 : 1 h 35 min
    11. Bit rate                                 : 9 144 kb/s
    12. Width                                    : 1 920 pixels
    13. Height                                   : 1 064 pixels
    14. Display aspect ratio                     : 16:9
    15. Frame rate mode                          : Constant
    16. Frame rate                               : 24.000 FPS
    17. Color space                              : YUV
    18. Chroma subsampling                       : 4:2:0
    19. Bit depth                                : 8 bits
    20. Scan type                                : Progressive
    21. Bits/(Pixel*Frame)                       : 0.187
    22. Stream size                              : 6.00 GiB (91%)
    23. Writing library                          : x264 core 80 r1376 3feaec2
    24. Encoding settings                        : cabac=1 / ref=4 / deblock=1:-1:-1 / analyse=0x3:0x113 / me=umh / subme=7 / psy=1 / psy_rd=1.0:0.0 / mixed_ref=1 / me_range=16 / chroma_me=1 / trellis=2 / 8x8dct=1 / cqm=0 / deadzone=21,11 / fast_pskip=1 / chroma_qp_offset=-2 / threads=6 / sliced_threads=0 / nr=0 / decimate=1 / mbaff=0 / constrained_intra=0 / bframes=3 / b_pyramid=0 / b_adapt=2 / b_bias=0 / direct=3 / wpredb=1 / wpredp=2 / keyint=250 / keyint_min=25 / scenecut=40 / rc_lookahead=40 / rc=2pass / mbtree=1 / bitrate=9144 / ratetol=1.0 / qcomp=0.60 / qpmin=10 / qpmax=51 / qpstep=4 / cplxblur=20.0 / qblur=0.5 / vbv_maxrate=50000 / vbv_bufsize=50000 / ip_ratio=1.40 / aq=1:1.00
    25. Language                                 : English
    26. Default                                  : Yes
    27. Forced                                   : No

    28. Audio
    29. ID                                       : 2
    30. Format                                   : AC-3
    31. Format/Info                              : Audio Coding 3
    32. Commercial name                          : Dolby Digital
    33. Codec ID                                 : A_AC3
    34. Duration                                 : 1 h 35 min
    35. Bit rate mode                            : Constant
    36. Bit rate                                 : 640 kb/s
    37. Channel(s)                               : 6 channels
    38. Channel layout                           : L R C LFE Ls Rs
    39. Sampling rate                            : 48.0 kHz
    40. Frame rate                               : 31.250 FPS (1536 SPF)
    41. Compression mode                         : Lossy
    42. Stream size                              : 439 MiB (7%)
    43. Language                                 : English
    44. Service kind                             : Complete Main
    45. Default                                  : Yes
    46. Forced                                   : No
    复制代码







    本帖隐藏的内容需要VIP会员才可浏览,您需要升级才可浏览,点击这里升级VIP





    哈拉十诫/十 The.Ten.2007.1080p.BluRay.x264-LCHD 6.56GB-1.png
    哈拉十诫/十 The.Ten.2007.1080p.BluRay.x264-LCHD 6.56GB-2.png
    哈拉十诫/十 The.Ten.2007.1080p.BluRay.x264-LCHD 6.56GB-3.png
    哈拉十诫/十 The.Ten.2007.1080p.BluRay.x264-LCHD 6.56GB-4.png
    回复

    使用道具 举报

    该用户从未签到

    0

    主题

    765

    帖子

    610

    积分

    高级会员

    Rank: 4

    积分
    610
    发表于 2021-3-26 19:13:18 | 显示全部楼层
    回复 支持 反对

    使用道具 举报

    该用户从未签到

    0

    主题

    735

    帖子

    431

    积分

    中级会员

    Rank: 3Rank: 3

    积分
    431
    发表于 2021-3-26 22:29:16 | 显示全部楼层
    回复 支持 反对

    使用道具 举报

    该用户从未签到

    0

    主题

    491

    帖子

    279

    积分

    中级会员

    Rank: 3Rank: 3

    积分
    279
    发表于 2021-3-27 00:19:31 | 显示全部楼层
    回复 支持 反对

    使用道具 举报

    该用户从未签到

    0

    主题

    2万

    帖子

    2万

    积分

    论坛元老

    Rank: 8Rank: 8

    积分
    22944
    发表于 2021-3-27 02:22:30 | 显示全部楼层

    是个好电影!必须要看的!多谢分享!
    回复 支持 反对

    使用道具 举报

    该用户从未签到

    0

    主题

    3681

    帖子

    2875

    积分

    金牌会员

    Rank: 6Rank: 6

    积分
    2875
    发表于 2021-3-27 07:06:11 | 显示全部楼层
    回复 支持 反对

    使用道具 举报

    该用户从未签到

    0

    主题

    448

    帖子

    188

    积分

    注册会员

    Rank: 2

    积分
    188
    发表于 2021-4-5 13:16:30 | 显示全部楼层

    非常精彩的电影,下来收藏,感谢楼主
    回复 支持 反对

    使用道具 举报

    该用户从未签到

    0

    主题

    1万

    帖子

    1万

    积分

    论坛元老

    Rank: 8Rank: 8

    积分
    14259
    发表于 2021-4-5 15:22:23 | 显示全部楼层
    楼主太厉害了!楼主,电影应该很好看我觉得蓝光电影下载真是个好地方!
    回复 支持 反对

    使用道具 举报

    该用户从未签到

    0

    主题

    2万

    帖子

    2万

    积分

    论坛元老

    Rank: 8Rank: 8

    积分
    22944
    发表于 2021-4-6 18:41:36 | 显示全部楼层
    这个帖子不回对不起自己!我想我是一天也不能离开蓝光电影网
    回复 支持 反对

    使用道具 举报

    该用户从未签到

    0

    主题

    735

    帖子

    431

    积分

    中级会员

    Rank: 3Rank: 3

    积分
    431
    发表于 2021-4-7 00:47:54 | 显示全部楼层
    回复 支持 反对

    使用道具 举报

    懒得打字嘛,点击右侧快捷回复 【右侧内容,后台自定义】
    您需要登录后才可以回帖 登录 | 立即注册

    本版积分规则

    郑重声明,本站所有作品片源来自互联网公开渠道,均为网友上传交流学习,影视版权均归原电影公司所有,如有侵犯版权,请与 2322694662@qq.com 联系,我们将立即删除。

    小黑屋|手机版|Archiver|百度统计|投诉|蓝光电影下载

    GMT+8, 2021-5-11 11:23 , Processed in 0.060255 second(s), 25 queries , Gzip On, MemCached On.

    Powered by Discuz! X3.4

    © 2001-2013 Comsenz Inc.

    快速回复 返回顶部 返回列表