快捷导航
查看: 702|回复: 12

[动作] 争分夺秒/爆裂的2008 Split.Second.1992.1080p.BluRay.x264-USURY 5.46GB

[复制链接]
  • TA的每日心情
    开心
    3 天前
  • 签到天数: 120 天

    [LV.7]常住居民III

    2454

    主题

    2574

    帖子

    5292

    积分

    发布组

    积分
    5292
    发表于 2021-4-14 18:20:34 | 显示全部楼层 |阅读模式
    1. 帖子完整标题:争分夺秒/爆裂的2008 Split.Second.1992.1080p.BluRay.x264-USURY 5.46GB
    复制代码
    争分夺秒/爆裂的2008 Split.Second.1992.1080p.BluRay.x264-USURY 5.46GB-1.png


    译  名 争分夺秒 / 爆裂的2008 / 血魔追魂
    片  名 Split Second
    年  代 1992
    产  地 英国
    类  别 动作 / 科幻 / 惊悚 / 恐怖 / 犯罪
    语  言 英语
    上映日期 1992-05-01
    IMDb评分  6.2/10 from 11858 users
    IMDb链接  https://www.imdb.com/title/tt0105459
    豆瓣评分 6.6/10 from 126 users
    豆瓣链接 https://movie.douban.com/subject/1302851/
    片  长 90 分钟
    导  演 Tony Maylam / Ian Sharp
    编  剧 盖瑞·斯科特·汤普森 Gary Scott Thompson
    主  演 鲁特格尔·哈尔 Rutger Hauer
           金·凯特罗尔 Kim Cattrall


    标  签 恐怖 | 科幻 | 动作 | 英国 | cult | 犯罪 | 美國 | 惊悚

    简  介   

      2008年的伦敦,由于海平面上升,街道在涨潮时就被海水浸漫,到处垃圾成堆,鼠辈横行。警探斯通(鲁特格尔·哈尔 Rutger Hauer饰)因为办案疯狂及不服从上司管教而被停职,但多年前几起连环谋杀案悬而未破让斯通不得不在停职期间仍私自追查。一日,在夜总会查案的斯通又遇到另一起凶案 ,遇害女性被开膛剜胸,取走心脏,死状可怖,与前如出一辙的犯案手法令斯通确信凶手为同一个人。没多久,警局竟然收到凶手寄来的已被撕咬成半颗的受害者心脏,从心脏上的齿痕得到的牙齿模具来看凶手更是绝非人类。随着类似凶案不断发生,斯通的前女友亦遭到袭击,斯通和精通星象、神秘学的菜鸟新搭档必须争分夺秒和时间赛跑,在下一具尸体出现前逮住它,消灭它。
    1. Video
    2. ID                                       : 1
    3. Format                                   : AVC
    4. Format/Info                              : Advanced Video Codec
    5. Format profile                           : High@L4
    6. Format settings                          : CABAC / 4 Ref Frames
    7. Format settings, CABAC                   : Yes
    8. Format settings, Reference frames        : 4 frames
    9. Codec ID                                 : V_MPEG4/ISO/AVC
    10. Duration                                 : 1 h 30 min
    11. Bit rate                                 : 8 198 kb/s
    12. Width                                    : 1 920 pixels
    13. Height                                   : 1 080 pixels
    14. Display aspect ratio                     : 16:9
    15. Frame rate mode                          : Constant
    16. Frame rate                               : 23.976 (24000/1001/189150) FPS
    17. Color space                              : YUV
    18. Chroma subsampling                       : 4:2:0
    19. Bit depth                                : 8 bits
    20. Scan type                                : Progressive
    21. Bits/(Pixel*Frame)                       : 0.165
    22. Stream size                              : 5.18 GiB (95%)
    23. Writing library                          : x264 core 146 r2538 121396c
    24. Encoding settings                        : cabac=1 / ref=4 / deblock=1:-2:-2 / analyse=0x3:0x113 / me=umh / subme=8 / psy=1 / psy_rd=1.00:0.15 / mixed_ref=1 / me_range=16 / chroma_me=1 / trellis=1 / 8x8dct=1 / cqm=0 / deadzone=21,11 / fast_pskip=0 / chroma_qp_offset=-3 / threads=6 / lookahead_threads=1 / sliced_threads=0 / nr=0 / decimate=1 / interlaced=0 / bluray_compat=0 / constrained_intra=0 / bframes=3 / b_pyramid=2 / b_adapt=2 / b_bias=0 / direct=3 / weightb=1 / open_gop=0 / weightp=2 / keyint=250 / keyint_min=23 / scenecut=40 / intra_refresh=0 / rc_lookahead=50 / rc=2pass / mbtree=1 / bitrate=8198 / ratetol=1.0 / qcomp=0.60 / qpmin=0 / qpmax=69 / qpstep=4 / cplxblur=20.0 / qblur=0.5 / ip_ratio=1.40 / aq=1:1.00
    25. Language                                 : English
    26. Default                                  : Yes
    27. Forced                                   : No

    28. Audio
    29. ID                                       : 2
    30. Format                                   : AC-3
    31. Format/Info                              : Audio Coding 3
    32. Commercial name                          : Dolby Digital
    33. Codec ID                                 : A_AC3
    34. Duration                                 : 1 h 30 min
    35. Bit rate mode                            : Constant
    36. Bit rate                                 : 448 kb/s
    37. Channel(s)                               : 6 channels
    38. Channel layout                           : L R C LFE Ls Rs
    39. Sampling rate                            : 48.0 kHz
    40. Frame rate                               : 31.250 FPS (1536 SPF)
    41. Compression mode                         : Lossy
    42. Stream size                              : 290 MiB (5%)
    43. Language                                 : English
    44. Service kind                             : Complete Main
    45. Default                                  : Yes
    46. Forced                                   : No

    47. Menu
    48. 00:00:00.000                             : en:00:00:00.000
    49. 00:00:00.375                             : en:00:00:00.375
    50. 00:11:27.437                             : en:00:11:27.437
    51. 00:28:56.985                             : en:00:28:56.985
    52. 00:43:52.296                             : en:00:43:52.296
    53. 00:59:27.814                             : en:00:59:27.814
    54. 01:12:43.109                             : en:01:12:43.109
    55. 01:20:28.240                             : en:01:20:28.240
    56. 01:27:39.171                             : en:01:27:39.171
    复制代码

    争分夺秒/爆裂的2008 Split.Second.1992.1080p.BluRay.x264-USURY 5.46GB-2.png
    本帖隐藏的内容需要VIP会员才可浏览,您需要升级才可浏览,点击这里升级VIP





    回复

    使用道具 举报

    该用户从未签到

    0

    主题

    1864

    帖子

    1062

    积分

    金牌会员

    Rank: 6Rank: 6

    积分
    1062
    发表于 2021-4-14 18:22:00 | 显示全部楼层
    回复 支持 反对

    使用道具 举报

    该用户从未签到

    0

    主题

    2万

    帖子

    1万

    积分

    论坛元老

    Rank: 8Rank: 8

    积分
    19894
    发表于 2021-4-14 20:13:38 | 显示全部楼层
    回复 支持 反对

    使用道具 举报

    该用户从未签到

    0

    主题

    1155

    帖子

    737

    积分

    高级会员

    Rank: 4

    积分
    737
    发表于 2021-4-14 22:08:51 | 显示全部楼层

    是个好电影!必须要看的!多谢分享!
    回复 支持 反对

    使用道具 举报

    该用户从未签到

    0

    主题

    2万

    帖子

    1万

    积分

    论坛元老

    Rank: 8Rank: 8

    积分
    19894
    发表于 2021-4-14 22:59:41 | 显示全部楼层
    回复 支持 反对

    使用道具 举报

    该用户从未签到

    0

    主题

    4723

    帖子

    4144

    积分

    论坛元老

    Rank: 8Rank: 8

    积分
    4144
    发表于 2021-4-15 10:03:54 | 显示全部楼层

    非常精彩的电影,下来收藏,感谢楼主
    回复 支持 反对

    使用道具 举报

    该用户从未签到

    0

    主题

    3万

    帖子

    3万

    积分

    论坛元老

    Rank: 8Rank: 8

    积分
    30753
    发表于 2021-4-20 05:17:57 | 显示全部楼层
    回复 支持 反对

    使用道具 举报

    该用户从未签到

    0

    主题

    4723

    帖子

    4144

    积分

    论坛元老

    Rank: 8Rank: 8

    积分
    4144
    发表于 2021-4-20 07:45:04 | 显示全部楼层
    楼主太厉害了!楼主,电影应该很好看我觉得蓝光电影下载真是个好地方!
    回复 支持 反对

    使用道具 举报

    该用户从未签到

    0

    主题

    2549

    帖子

    2121

    积分

    金牌会员

    Rank: 6Rank: 6

    积分
    2121
    发表于 2021-4-23 08:52:20 | 显示全部楼层
    回复 支持 反对

    使用道具 举报

    该用户从未签到

    0

    主题

    6775

    帖子

    5081

    积分

    论坛元老

    Rank: 8Rank: 8

    积分
    5081
    发表于 2021-4-30 07:37:33 | 显示全部楼层
    回复 支持 反对

    使用道具 举报

    懒得打字嘛,点击右侧快捷回复 【右侧内容,后台自定义】
    您需要登录后才可以回帖 登录 | 立即注册

    本版积分规则

    郑重声明,本站所有作品片源来自互联网公开渠道,均为网友上传交流学习,影视版权均归原电影公司所有,如有侵犯版权,请与 2322694662@qq.com 联系,我们将立即删除。

    小黑屋|手机版|Archiver|百度统计|投诉|蓝光电影下载

    GMT+8, 2021-11-29 10:44 , Processed in 0.139687 second(s), 21 queries , Gzip On, MemCached On.

    Powered by Discuz! X3.4

    © 2001-2013 Comsenz Inc.

    快速回复 返回顶部 返回列表