快捷导航
查看: 44|回复: 12

[喜剧] 伯尼 Bernie.1996.1080p.BluRay.x264-USURY 7.65GB

[复制链接]
  • TA的每日心情

    2021-4-27 18:29
  • 签到天数: 36 天

    [LV.5]常住居民I

    1162

    主题

    1198

    帖子

    2060

    积分

    发布组

    积分
    2060
    发表于 2021-4-14 18:31:49 | 显示全部楼层 |阅读模式
    1. 帖子完整标题:伯尼 Bernie.1996.1080p.BluRay.x264-USURY 7.65GB
    复制代码
    伯尼 Bernie.1996.1080p.BluRay.x264-USURY 7.65GB-1.png


    译  名 伯尼
    片  名 Bernie
    年  代 1996
    产  地 法国
    类  别 喜剧
    语  言 法语
    上映日期 1996-11-27
    IMDb评分  7.2/10 from 3303 users
    IMDb链接  https://www.imdb.com/title/tt0115658
    豆瓣评分 7.1/10 from 103 users
    豆瓣链接 https://movie.douban.com/subject/3137511/
    片  长 87 分钟
    导  演 阿尔贝·杜邦泰尔 Albert Dupontel
    编  剧 阿尔贝·杜邦泰尔 Albert Dupontel
    主  演 阿尔贝·杜邦泰尔 Albert Dupontel
           克洛德·佩隆 Claude Perron


    标  签 法国 | 黑色幽默 | 法国电影 | 喜剧 | 1996 | 1990s | 伯尼 | 电影

    简  介   

      一个在孤儿院呆了29年的孤儿某天突然想寻回自己的父母。自己的孤儿身份让他精神有点儿分裂。他带着好几万法郎离开了孤儿院,私闯市政俯,翻开了自己的档案,几番周折,终于找到了自己的父母。然后他本想和父母过上平静的生活,但是。。。
      本片风格与是此男主角(兼导演)的一贯风格,很夸张,很变态,很疯狂,很酷。。。
      L’histoire extraordinaire et déjantée de Bernie, orphelin jeté à la poubelle à sa naissance. Il s’invente des parents modèles, et dans son délire fantasque, décide de les protéger d’un complot mafieux imaginaire.
    1. Video
    2. ID                                       : 1
    3. Format                                   : AVC
    4. Format/Info                              : Advanced Video Codec
    5. Format profile                           : High@L4
    6. Format settings                          : CABAC / 4 Ref Frames
    7. Format settings, CABAC                   : Yes
    8. Format settings, Reference frames        : 4 frames
    9. Codec ID                                 : V_MPEG4/ISO/AVC
    10. Duration                                 : 1 h 25 min
    11. Bit rate                                 : 11.3 Mb/s
    12. Width                                    : 1 920 pixels
    13. Height                                   : 1 040 pixels
    14. Display aspect ratio                     : 1.85:1
    15. Frame rate mode                          : Constant
    16. Frame rate                               : 24.000 FPS
    17. Color space                              : YUV
    18. Chroma subsampling                       : 4:2:0
    19. Bit depth                                : 8 bits
    20. Scan type                                : Progressive
    21. Bits/(Pixel*Frame)                       : 0.235
    22. Stream size                              : 6.74 GiB (88%)
    23. Writing library                          : x264 core 157 r2935 545de2f
    24. Encoding settings                        : cabac=1 / ref=4 / deblock=1:0:0 / analyse=0x3:0x133 / me=umh / subme=9 / psy=1 / psy_rd=1.00:0.00 / mixed_ref=1 / me_range=16 / chroma_me=1 / trellis=2 / 8x8dct=1 / cqm=0 / deadzone=21,11 / fast_pskip=0 / chroma_qp_offset=-2 / threads=24 / lookahead_threads=2 / sliced_threads=0 / nr=0 / decimate=1 / interlaced=0 / bluray_compat=0 / constrained_intra=0 / bframes=3 / b_pyramid=2 / b_adapt=2 / b_bias=0 / direct=3 / weightb=1 / open_gop=0 / weightp=2 / keyint=240 / keyint_min=24 / scenecut=40 / intra_refresh=0 / rc_lookahead=50 / rc=2pass / mbtree=1 / bitrate=11275 / ratetol=1.0 / qcomp=0.60 / qpmin=0 / qpmax=69 / qpstep=4 / cplxblur=20.0 / qblur=0.5 / ip_ratio=1.40 / aq=1:1.00
    25. Language                                 : English
    26. Default                                  : Yes
    27. Forced                                   : No

    28. Audio
    29. ID                                       : 2
    30. Format                                   : DTS
    31. Format/Info                              : Digital Theater Systems
    32. Codec ID                                 : A_DTS
    33. Duration                                 : 1 h 25 min
    34. Bit rate mode                            : Constant
    35. Bit rate                                 : 1 509 kb/s
    36. Channel(s)                               : 6 channels
    37. Channel layout                           : C L R Ls Rs LFE
    38. Sampling rate                            : 48.0 kHz
    39. Frame rate                               : 93.750 FPS (512 SPF)
    40. Bit depth                                : 24 bits
    41. Compression mode                         : Lossy
    42. Stream size                              : 925 MiB (12%)
    43. Language                                 : French
    44. Default                                  : Yes
    45. Forced                                   : No

    46. Text
    47. ID                                       : 3
    48. Format                                   : UTF-8
    49. Codec ID                                 : S_TEXT/UTF8
    50. Codec ID/Info                            : UTF-8 Plain Text
    51. Duration                                 : 1 h 23 min
    52. Bit rate                                 : 33 b/s
    53. Count of elements                        : 818
    54. Stream size                              : 20.3 KiB (0%)
    55. Title                                    : English
    56. Language                                 : English
    57. Default                                  : Yes
    58. Forced                                   : Yes

    59. Menu
    60. 00:00:00.000                             : en:00:00:00.000
    61. 00:06:30.417                             : en:00:06:30.417
    62. 00:13:59.375                             : en:00:13:59.375
    63. 00:22:05.250                             : en:00:22:05.250
    64. 00:28:12.958                             : en:00:28:12.958
    65. 00:35:27.833                             : en:00:35:27.833
    66. 00:43:43.500                             : en:00:43:43.500
    67. 00:48:32.542                             : en:00:48:32.542
    68. 00:56:31.333                             : en:00:56:31.333
    69. 01:03:36.083                             : en:01:03:36.083
    70. 01:09:36.167                             : en:01:09:36.167
    71. 01:14:59.542                             : en:01:14:59.542
    复制代码

    伯尼 Bernie.1996.1080p.BluRay.x264-USURY 7.65GB-2.png

    本帖隐藏的内容需要VIP会员才可浏览,您需要升级才可浏览,点击这里升级VIP




    回复

    使用道具 举报

    该用户从未签到

    0

    主题

    1万

    帖子

    1万

    积分

    论坛元老

    Rank: 8Rank: 8

    积分
    14219
    发表于 2021-4-14 18:32:03 | 显示全部楼层
    这个帖子不回对不起自己!我想我是一天也不能离开蓝光电影网
    回复 支持 反对

    使用道具 举报

    该用户从未签到

    0

    主题

    1万

    帖子

    1万

    积分

    论坛元老

    Rank: 8Rank: 8

    积分
    14259
    发表于 2021-4-14 19:30:27 | 显示全部楼层
    回复 支持 反对

    使用道具 举报

    该用户从未签到

    0

    主题

    1160

    帖子

    890

    积分

    高级会员

    Rank: 4

    积分
    890
    发表于 2021-4-14 23:00:47 | 显示全部楼层
    回复 支持 反对

    使用道具 举报

  • TA的每日心情

    2021-4-19 11:01
  • 签到天数: 11 天

    [LV.3]偶尔看看II

    1

    主题

    1541

    帖子

    1848

    积分

    金牌会员

    Rank: 6Rank: 6

    积分
    1848
    发表于 2021-4-15 07:33:31 | 显示全部楼层
    回复 支持 反对

    使用道具 举报

    该用户从未签到

    0

    主题

    448

    帖子

    188

    积分

    注册会员

    Rank: 2

    积分
    188
    发表于 2021-4-15 10:03:42 | 显示全部楼层
    回复 支持 反对

    使用道具 举报

    该用户从未签到

    0

    主题

    1万

    帖子

    1万

    积分

    论坛元老

    Rank: 8Rank: 8

    积分
    14219
    发表于 2021-4-22 08:14:38 | 显示全部楼层
    感谢楼主的无私分享!要想蓝光高清电影网好 就靠你我他
    回复 支持 反对

    使用道具 举报

    该用户从未签到

    0

    主题

    2859

    帖子

    2405

    积分

    金牌会员

    Rank: 6Rank: 6

    积分
    2405
    发表于 2021-4-23 12:12:42 | 显示全部楼层

    是个好电影!必须要看的!多谢分享!
    回复 支持 反对

    使用道具 举报

    该用户从未签到

    0

    主题

    3809

    帖子

    2888

    积分

    金牌会员

    Rank: 6Rank: 6

    积分
    2888
    发表于 2021-4-25 21:54:38 | 显示全部楼层
    回复 支持 反对

    使用道具 举报

    该用户从未签到

    0

    主题

    2万

    帖子

    2万

    积分

    论坛元老

    Rank: 8Rank: 8

    积分
    22944
    发表于 2021-4-27 07:48:49 | 显示全部楼层
    回复 支持 反对

    使用道具 举报

    懒得打字嘛,点击右侧快捷回复 【右侧内容,后台自定义】
    您需要登录后才可以回帖 登录 | 立即注册

    本版积分规则

    郑重声明,本站所有作品片源来自互联网公开渠道,均为网友上传交流学习,影视版权均归原电影公司所有,如有侵犯版权,请与 2322694662@qq.com 联系,我们将立即删除。

    小黑屋|手机版|Archiver|百度统计|投诉|蓝光电影下载

    GMT+8, 2021-5-11 11:19 , Processed in 0.058044 second(s), 24 queries , Gzip On, MemCached On.

    Powered by Discuz! X3.4

    © 2001-2013 Comsenz Inc.

    快速回复 返回顶部 返回列表