快捷导航
查看: 448|回复: 12

[爱情] 淹没/当爱未成往事 Submergence.2017.1080p.BluRay.x264-PSYCHD 7.66GB

[复制链接]
  • TA的每日心情

    3 天前
  • 签到天数: 105 天

    [LV.6]常住居民II

    2054

    主题

    2161

    帖子

    4640

    积分

    发布组

    积分
    4640
    发表于 2021-4-16 22:31:13 | 显示全部楼层 |阅读模式
    1. 帖子完整标题:淹没/当爱未成往事 Submergence.2017.1080p.BluRay.x264-PSYCHD 7.66GB
    复制代码
    淹没/当爱未成往事 Submergence.2017.1080p.BluRay.x264-PSYCHD 7.66GB-1.png


    译  名 淹没 / 当爱未成往事(台) / 爱情淹没(港)
    片  名 Submergence
    年  代 2017
    产  地 德国 / 法国 / 西班牙 / 美国
    类  别 剧情 / 爱情 / 惊悚
    语  言 英语
    上映日期 2017-09-10(多伦多电影节) / 2018-04-13(美国)
    IMDb评分  5.4/10 from 6705 users
    IMDb链接  https://www.imdb.com/title/tt3563262
    豆瓣评分 6.2/10 from 2780 users
    豆瓣链接 https://movie.douban.com/subject/26656371/
    片  长 112分钟
    导  演 维姆·文德斯 Wim Wenders
    编  剧 艾琳·迪格纳穆 Erin Dignam / J·M·莱贾德 J.M. Ledgard
    主  演 艾丽西亚·维坎德 Alicia Vikander
           詹姆斯·麦卡沃伊 James McAvoy
           亚历山大·希迪格 Alexander Siddig
           雅尼克·许曼 Jannik Schümann
           勒达·卡代布 Reda Kateb
           塞林·琼斯 Celyn Jones
           耶斯·利奥丹 Jess Liaudin
           安德烈娅·瓜施 Andrea Guasch
           亚历克斯·哈夫纳 Alex Hafner


    标  签 爱情 | JamesMcAvoy | 美国 | 剧情 | 2017 | 一美 | AliciaVikander | James·McAvoy

    简  介   

      詹姆斯·麦卡沃伊、艾丽西亚·维坎德加盟的爱情片《淹没》将于三月开机,导演维姆·文德斯。故事围绕女科学家丹妮尔与英国商人詹姆斯的爱情故事展开。詹姆斯因被伊斯兰圣战分子囚禁,与丹妮尔远隔千里,两人的爱情面临生与死的考验。Embankment公司将在2月开展的欧洲电影交易市场上对本片进行预售。

    获奖情况  

      第65届圣塞巴斯蒂安国际电影节(2017)
      金贝壳奖(提名) 维姆·文德斯
    1. Video
    2. ID                                       : 1
    3. Format                                   : AVC
    4. Format/Info                              : Advanced Video Codec
    5. Format profile                           : High@L4
    6. Format settings                          : CABAC / 4 Ref Frames
    7. Format settings, CABAC                   : Yes
    8. Format settings, Reference frames        : 4 frames
    9. Codec ID                                 : V_MPEG4/ISO/AVC
    10. Duration                                 : 1 h 51 min
    11. Bit rate                                 : 8 306 kb/s
    12. Width                                    : 1 920 pixels
    13. Height                                   : 1 040 pixels
    14. Display aspect ratio                     : 1.85:1
    15. Frame rate mode                          : Constant
    16. Frame rate                               : 24.000 FPS
    17. Color space                              : YUV
    18. Chroma subsampling                       : 4:2:0
    19. Bit depth                                : 8 bits
    20. Scan type                                : Progressive
    21. Bits/(Pixel*Frame)                       : 0.173
    22. Stream size                              : 6.32 GiB (83%)
    23. Writing library                          : x264 core 155 r2901 7d0ff22
    24. Encoding settings                        : cabac=1 / ref=4 / deblock=1:-3:-3 / analyse=0x3:0x113 / me=umh / subme=8 / psy=1 / psy_rd=1.00:0.00 / mixed_ref=1 / me_range=32 / chroma_me=1 / trellis=1 / 8x8dct=1 / cqm=0 / deadzone=21,11 / fast_pskip=1 / chroma_qp_offset=-2 / threads=24 / lookahead_threads=4 / sliced_threads=0 / nr=0 / decimate=1 / interlaced=0 / bluray_compat=0 / constrained_intra=0 / bframes=3 / b_pyramid=2 / b_adapt=2 / b_bias=0 / direct=3 / weightb=1 / open_gop=0 / weightp=2 / keyint=240 / keyint_min=24 / scenecut=40 / intra_refresh=0 / rc_lookahead=50 / rc=2pass / mbtree=1 / bitrate=8306 / ratetol=1.0 / qcomp=0.60 / qpmin=0 / qpmax=69 / qpstep=4 / cplxblur=20.0 / qblur=0.5 / ip_ratio=1.40 / aq=3:0.80
    25. Default                                  : Yes
    26. Forced                                   : No
    27. Statistics Tags Issue                    : no_variable_data 1970-01-01 00:00:00 / no_variable_data 2010-02-22 21:41:29
    28. FromStats_BitRate                        : 8302366
    29. FromStats_Duration                       : 01:51:35.834000000
    30. FromStats_FrameCount                     : 160700
    31. FromStats_StreamSize                     : 6948908901

    32. Audio
    33. ID                                       : 2
    34. Format                                   : DTS
    35. Format/Info                              : Digital Theater Systems
    36. Codec ID                                 : A_DTS
    37. Duration                                 : 1 h 51 min
    38. Bit rate mode                            : Constant
    39. Bit rate                                 : 1 509 kb/s
    40. Channel(s)                               : 6 channels
    41. Channel layout                           : C L R Ls Rs LFE
    42. Sampling rate                            : 48.0 kHz
    43. Frame rate                               : 93.750 FPS (512 SPF)
    44. Bit depth                                : 24 bits
    45. Compression mode                         : Lossy
    46. Stream size                              : 1.18 GiB (15%)
    47. Language                                 : English
    48. Default                                  : Yes
    49. Forced                                   : No
    50. Statistics Tags Issue                    : no_variable_data 1970-01-01 00:00:00 / no_variable_data 2010-02-22 21:41:29
    51. FromStats_BitRate                        : 1508999
    52. FromStats_Duration                       : 01:51:35.862000000
    53. FromStats_FrameCount                     : 627737
    54. FromStats_StreamSize                     : 1263006844

    55. Text #1
    56. ID                                       : 3
    57. Format                                   : UTF-8
    58. Codec ID                                 : S_TEXT/UTF8
    59. Codec ID/Info                            : UTF-8 Plain Text
    60. Language                                 : English
    61. Default                                  : No
    62. Forced                                   : No
    63. Statistics Tags Issue                    : no_variable_data 1970-01-01 00:00:00 / no_variable_data 2010-02-22 21:41:29
    64. FromStats_BitRate                        : 40
    65. FromStats_Duration                       : 01:41:41.499000000
    66. FromStats_FrameCount                     : 961
    67. FromStats_StreamSize                     : 30599

    68. Text #2
    69. ID                                       : 4
    70. Format                                   : UTF-8
    71. Codec ID                                 : S_TEXT/UTF8
    72. Codec ID/Info                            : UTF-8 Plain Text
    73. Title                                    : SDH
    74. Language                                 : English
    75. Default                                  : No
    76. Forced                                   : No
    77. Statistics Tags Issue                    : no_variable_data 1970-01-01 00:00:00 / no_variable_data 2010-02-22 21:41:29
    78. FromStats_BitRate                        : 44
    79. FromStats_Duration                       : 01:45:28.833000000
    80. FromStats_FrameCount                     : 1164
    81. FromStats_StreamSize                     : 35216

    82. Menu
    83. 00:00:00.000                             : en:00:00:00.000
    84. 00:06:30.083                             : en:00:06:30.083
    85. 00:13:56.792                             : en:00:13:56.792
    86. 00:19:15.208                             : en:00:19:15.208
    87. 00:26:32.292                             : en:00:26:32.292
    88. 00:34:03.208                             : en:00:34:03.208
    89. 00:43:14.750                             : en:00:43:14.750
    90. 00:48:35.167                             : en:00:48:35.167
    91. 00:54:43.625                             : en:00:54:43.625
    92. 01:01:40.000                             : en:01:01:40.000
    93. 01:08:25.417                             : en:01:08:25.417
    94. 01:15:05.375                             : en:01:15:05.375
    95. 01:21:54.542                             : en:01:21:54.542
    96. 01:29:34.292                             : en:01:29:34.292
    97. 01:37:09.625                             : en:01:37:09.625
    98. 01:45:57.208                             : en:01:45:57.208
    99. 00:10:00.000                             : en:00:10:00.000
    复制代码

    淹没/当爱未成往事 Submergence.2017.1080p.BluRay.x264-PSYCHD 7.66GB-2.png

    本帖隐藏的内容需要VIP会员才可浏览,您需要升级才可浏览,点击这里升级VIP




    回复

    使用道具 举报

    该用户从未签到

    0

    主题

    180

    帖子

    40

    积分

    新手上路

    Rank: 1

    积分
    40
    发表于 2021-4-16 22:31:32 | 显示全部楼层
    回复 支持 反对

    使用道具 举报

    该用户从未签到

    0

    主题

    1万

    帖子

    1万

    积分

    论坛元老

    Rank: 8Rank: 8

    积分
    17623
    发表于 2021-4-16 22:59:51 | 显示全部楼层
    回复 支持 反对

    使用道具 举报

    该用户从未签到

    0

    主题

    3422

    帖子

    2405

    积分

    金牌会员

    Rank: 6Rank: 6

    积分
    2405
    发表于 2021-4-16 23:00:05 | 显示全部楼层
    回复 支持 反对

    使用道具 举报

    该用户从未签到

    0

    主题

    3万

    帖子

    2万

    积分

    论坛元老

    Rank: 8Rank: 8

    积分
    28148
    发表于 2021-4-16 23:19:37 | 显示全部楼层

    非常精彩的电影,下来收藏,感谢楼主
    回复 支持 反对

    使用道具 举报

    该用户从未签到

    0

    主题

    3万

    帖子

    2万

    积分

    论坛元老

    Rank: 8Rank: 8

    积分
    28148
    发表于 2021-4-17 00:56:22 | 显示全部楼层
    回复 支持 反对

    使用道具 举报

    该用户从未签到

    0

    主题

    2万

    帖子

    1万

    积分

    论坛元老

    Rank: 8Rank: 8

    积分
    18385
    发表于 2021-4-18 09:58:55 | 显示全部楼层
    楼主太厉害了!楼主,电影应该很好看我觉得蓝光电影下载真是个好地方!
    回复 支持 反对

    使用道具 举报

    该用户从未签到

    0

    主题

    545

    帖子

    311

    积分

    中级会员

    Rank: 3Rank: 3

    积分
    311
    发表于 2021-4-20 11:42:10 | 显示全部楼层

    是个好电影!必须要看的!多谢分享!
    回复 支持 反对

    使用道具 举报

    该用户从未签到

    0

    主题

    1205

    帖子

    895

    积分

    高级会员

    Rank: 4

    积分
    895
    发表于 2021-4-20 17:17:15 | 显示全部楼层
    回复 支持 反对

    使用道具 举报

    该用户从未签到

    0

    主题

    7831

    帖子

    7078

    积分

    论坛元老

    Rank: 8Rank: 8

    积分
    7078
    发表于 2021-4-22 14:49:00 | 显示全部楼层
    回复 支持 反对

    使用道具 举报

    懒得打字嘛,点击右侧快捷回复 【右侧内容,后台自定义】
    您需要登录后才可以回帖 登录 | 立即注册

    本版积分规则

    郑重声明,本站所有作品片源来自互联网公开渠道,均为网友上传交流学习,影视版权均归原电影公司所有,如有侵犯版权,请与 2322694662@qq.com 联系,我们将立即删除。

    小黑屋|手机版|Archiver|百度统计|投诉|蓝光电影下载

    GMT+8, 2021-9-26 05:48 , Processed in 0.123333 second(s), 24 queries , Gzip On, MemCached On.

    Powered by Discuz! X3.4

    © 2001-2013 Comsenz Inc.

    快速回复 返回顶部 返回列表