快捷导航
查看: 262|回复: 12

[惊悚] 黑警/嗜好 Bent.2018.1080p.BluRay.x264-PSYCHD 6.58GB

[复制链接]
  • TA的每日心情
    无聊
    3 天前
  • 签到天数: 61 天

    [LV.6]常住居民II

    1623

    主题

    1684

    帖子

    3125

    积分

    发布组

    积分
    3125
    发表于 2021-4-16 22:34:10 | 显示全部楼层 |阅读模式
    1. 帖子完整标题:黑警/嗜好 Bent.2018.1080p.BluRay.x264-PSYCHD 6.58GB
    复制代码
    黑警/嗜好 Bent.2018.1080p.BluRay.x264-PSYCHD 6.58GB-1.png


    译  名 黑警 / 嗜好
    片  名 Bent
    年  代 2018
    产  地 西班牙 / 美国
    类  别 惊悚
    语  言 英语
    上映日期 2018-03-09(美国)
    IMDb评分  5.2/10 from 3704 users
    IMDb链接  https://www.imdb.com/title/tt2237324
    豆瓣评分 4.9/10 from 253 users
    豆瓣链接 https://movie.douban.com/subject/27003682/
    片  长 96分钟
    导  演 罗伯特·莫里斯克 Robert Moresco
    编  剧 罗伯特·莫里斯克 Robert Moresco / Joseph P. O'Donnell
    主  演 卡尔·厄本 Karl Urban
           索菲娅·维加拉 Sofía Vergara
           安迪·加西亚 Andy Garcia
           托尼娅·科妮斯 Tonya Cornelisse
           约翰·芬 John Finn
           文森特·斯帕诺 Vincent Spano
           格蕾丝·拜尔斯 Grace Byers
           泰·比尔斯 Trai Byers
           Patrick Brennan
           Joe Pacheco
           Matthew T. Reynolds
           大卫·柯克·特雷勒 David Kirk Traylor
           Matt Patresi
           Charlotte Bradley
           埃琳娜·桑兹 Elena Sanz
           伊莎贝尔·瑟拉诺 Isabel Serrano
           杰登·伦德 Jayden Lund
           基娅拉·巴瑟尔曼 Chiara Bassermann
           帕特·阿桑蒂 Pat Asanti
           Silvio Pollio
           马尔科·潘克拉齐 Marco Pancrazi
           安德烈亚·布鲁斯基 Andrea Bruschi
           提摩西·马丁 Timothy Martin


    标  签 犯罪 | 美国 | 动作 | 2018 | 警匪 | 剧情 | 电影 | 美国电影

    简  介   

      卡尔·厄本、索菲娅·维加拉、安迪·加西亚确定参演复仇题材影片[嗜好](Bent,暂译),博比·莫瑞斯克自编自导。片中丹尼·加拉格尔(厄本饰)是一名缉毒侦探,可他被人陷害最终身陷囹圄。出狱后的他旋即决定复仇。索菲娅·维加拉扮演一名政府人员,安迪·加西亚化身加拉格尔的导师。本片目前已于罗马开拍。
    1. Video
    2. ID                                       : 1
    3. Format                                   : AVC
    4. Format/Info                              : Advanced Video Codec
    5. Format profile                           : High@L4
    6. Format settings                          : CABAC / 5 Ref Frames
    7. Format settings, CABAC                   : Yes
    8. Format settings, Reference frames        : 5 frames
    9. Codec ID                                 : V_MPEG4/ISO/AVC
    10. Duration                                 : 1 h 36 min
    11. Bit rate                                 : 8 216 kb/s
    12. Width                                    : 1 920 pixels
    13. Height                                   : 800 pixels
    14. Display aspect ratio                     : 2.40:1
    15. Frame rate mode                          : Constant
    16. Frame rate                               : 23.976 (24000/1001/189150) FPS
    17. Color space                              : YUV
    18. Chroma subsampling                       : 4:2:0
    19. Bit depth                                : 8 bits
    20. Scan type                                : Progressive
    21. Bits/(Pixel*Frame)                       : 0.223
    22. Stream size                              : 5.41 GiB (82%)
    23. Writing library                          : x264 core 155 r2901 7d0ff22
    24. Encoding settings                        : cabac=1 / ref=5 / deblock=1:-3:-3 / analyse=0x3:0x113 / me=umh / subme=8 / psy=1 / psy_rd=1.00:0.00 / mixed_ref=1 / me_range=32 / chroma_me=1 / trellis=1 / 8x8dct=1 / cqm=0 / deadzone=21,11 / fast_pskip=1 / chroma_qp_offset=-2 / threads=24 / lookahead_threads=4 / sliced_threads=0 / nr=0 / decimate=1 / interlaced=0 / bluray_compat=0 / constrained_intra=0 / bframes=3 / b_pyramid=2 / b_adapt=2 / b_bias=0 / direct=3 / weightb=1 / open_gop=0 / weightp=2 / keyint=240 / keyint_min=24 / scenecut=40 / intra_refresh=0 / rc_lookahead=50 / rc=2pass / mbtree=1 / bitrate=8216 / ratetol=1.0 / qcomp=0.60 / qpmin=0 / qpmax=69 / qpstep=4 / cplxblur=20.0 / qblur=0.5 / ip_ratio=1.40 / aq=3:0.80
    25. Default                                  : Yes
    26. Forced                                   : No
    27. Statistics Tags Issue                    : no_variable_data 1970-01-01 00:00:00 / no_variable_data 2010-02-22 21:41:29
    28. FromStats_BitRate                        : 8213473
    29. FromStats_Duration                       : 01:36:31.786000000
    30. FromStats_FrameCount                     : 138864
    31. FromStats_StreamSize                     : 5946335386

    32. Audio
    33. ID                                       : 2
    34. Format                                   : DTS
    35. Format/Info                              : Digital Theater Systems
    36. Codec ID                                 : A_DTS
    37. Duration                                 : 1 h 36 min
    38. Bit rate mode                            : Constant
    39. Bit rate                                 : 1 509 kb/s
    40. Channel(s)                               : 6 channels
    41. Channel layout                           : C L R Ls Rs LFE
    42. Sampling rate                            : 48.0 kHz
    43. Frame rate                               : 93.750 FPS (512 SPF)
    44. Bit depth                                : 24 bits
    45. Compression mode                         : Lossy
    46. Stream size                              : 1.02 GiB (16%)
    47. Language                                 : English
    48. Default                                  : Yes
    49. Forced                                   : No
    50. Statistics Tags Issue                    : no_variable_data 1970-01-01 00:00:00 / no_variable_data 2010-02-22 21:41:29
    51. FromStats_BitRate                        : 1508999
    52. FromStats_Duration                       : 01:36:31.787000000
    53. FromStats_FrameCount                     : 542980
    54. FromStats_StreamSize                     : 1092475760

    55. Text #1
    56. ID                                       : 3
    57. Format                                   : UTF-8
    58. Codec ID                                 : S_TEXT/UTF8
    59. Codec ID/Info                            : UTF-8 Plain Text
    60. Language                                 : English
    61. Default                                  : No
    62. Forced                                   : No
    63. Statistics Tags Issue                    : no_variable_data 1970-01-01 00:00:00 / no_variable_data 2010-02-22 21:41:29
    64. FromStats_BitRate                        : 52
    65. FromStats_Duration                       : 01:35:25.011000000
    66. FromStats_FrameCount                     : 1208
    67. FromStats_StreamSize                     : 37576

    68. Text #2
    69. ID                                       : 4
    70. Format                                   : UTF-8
    71. Codec ID                                 : S_TEXT/UTF8
    72. Codec ID/Info                            : UTF-8 Plain Text
    73. Title                                    : SDH
    74. Language                                 : English
    75. Default                                  : No
    76. Forced                                   : No
    77. Statistics Tags Issue                    : no_variable_data 1970-01-01 00:00:00 / no_variable_data 2010-02-22 21:41:29
    78. FromStats_BitRate                        : 57
    79. FromStats_Duration                       : 01:35:35.272000000
    80. FromStats_FrameCount                     : 1397
    81. FromStats_StreamSize                     : 41505

    82. Menu
    83. 00:00:00.000                             : en:00:00:00.000
    84. 00:03:47.894                             : en:00:03:47.894
    85. 00:10:50.275                             : en:00:10:50.275
    86. 00:18:16.429                             : en:00:18:16.429
    87. 00:24:26.507                             : en:00:24:26.507
    88. 00:30:25.032                             : en:00:30:25.032
    89. 00:37:36.337                             : en:00:37:36.337
    90. 00:40:25.632                             : en:00:40:25.632
    91. 00:47:53.287                             : en:00:47:53.287
    92. 00:55:57.854                             : en:00:55:57.854
    93. 00:59:05.208                             : en:00:59:05.208
    94. 01:05:16.412                             : en:01:05:16.412
    95. 01:11:50.806                             : en:01:11:50.806
    96. 01:18:28.913                             : en:01:18:28.913
    97. 01:23:48.982                             : en:01:23:48.982
    98. 01:29:21.481                             : en:01:29:21.481
    复制代码

    黑警/嗜好 Bent.2018.1080p.BluRay.x264-PSYCHD 6.58GB-2.png
    本帖隐藏的内容需要VIP会员才可浏览,您需要升级才可浏览,点击这里升级VIP





    回复

    使用道具 举报

    该用户从未签到

    0

    主题

    2万

    帖子

    2万

    积分

    论坛元老

    Rank: 8Rank: 8

    积分
    25556
    发表于 2021-4-16 22:34:26 | 显示全部楼层
    楼主太厉害了!楼主,电影应该很好看我觉得蓝光电影下载真是个好地方!
    回复 支持 反对

    使用道具 举报

    该用户从未签到

    0

    主题

    984

    帖子

    671

    积分

    高级会员

    Rank: 4

    积分
    671
    发表于 2021-4-17 00:56:19 | 显示全部楼层
    回复 支持 反对

    使用道具 举报

    该用户从未签到

    0

    主题

    1万

    帖子

    1万

    积分

    论坛元老

    Rank: 8Rank: 8

    积分
    16777
    发表于 2021-4-17 02:38:48 | 显示全部楼层
    回复 支持 反对

    使用道具 举报

    该用户从未签到

    0

    主题

    1万

    帖子

    1万

    积分

    论坛元老

    Rank: 8Rank: 8

    积分
    15691
    发表于 2021-4-17 03:23:48 | 显示全部楼层
    回复 支持 反对

    使用道具 举报

    该用户从未签到

    0

    主题

    958

    帖子

    431

    积分

    中级会员

    Rank: 3Rank: 3

    积分
    431
    发表于 2021-4-17 04:41:24 | 显示全部楼层
    回复 支持 反对

    使用道具 举报

    该用户从未签到

    0

    主题

    2万

    帖子

    2万

    积分

    论坛元老

    Rank: 8Rank: 8

    积分
    25556
    发表于 2021-4-17 09:26:39 | 显示全部楼层
    回复 支持 反对

    使用道具 举报

    该用户从未签到

    0

    主题

    142

    帖子

    40

    积分

    新手上路

    Rank: 1

    积分
    40
    发表于 2021-4-17 16:09:50 | 显示全部楼层
    回复 支持 反对

    使用道具 举报

    该用户从未签到

    0

    主题

    537

    帖子

    279

    积分

    中级会员

    Rank: 3Rank: 3

    积分
    279
    发表于 2021-4-17 19:16:01 | 显示全部楼层
    感谢楼主的无私分享!要想蓝光高清电影网好 就靠你我他
    回复 支持 反对

    使用道具 举报

    该用户从未签到

    0

    主题

    2246

    帖子

    2046

    积分

    金牌会员

    Rank: 6Rank: 6

    积分
    2046
    发表于 2021-4-23 04:03:30 | 显示全部楼层
    这个帖子不回对不起自己!我想我是一天也不能离开蓝光电影网
    回复 支持 反对

    使用道具 举报

    懒得打字嘛,点击右侧快捷回复 【右侧内容,后台自定义】
    您需要登录后才可以回帖 登录 | 立即注册

    本版积分规则

    郑重声明,本站所有作品片源来自互联网公开渠道,均为网友上传交流学习,影视版权均归原电影公司所有,如有侵犯版权,请与 2322694662@qq.com 联系,我们将立即删除。

    小黑屋|手机版|Archiver|百度统计|投诉|蓝光电影下载

    GMT+8, 2021-6-22 15:51 , Processed in 0.065811 second(s), 25 queries , Gzip On, MemCached On.

    Powered by Discuz! X3.4

    © 2001-2013 Comsenz Inc.

    快速回复 返回顶部 返回列表