快捷导航
查看: 278|回复: 12

[喜剧] 捉妖记2 Monster.Hunt.2.2018.CHINESE.1080p.BluRay.x264.DD5.1-CHD 12.54GB

[复制链接]
  • TA的每日心情
    擦汗
    3 天前
  • 签到天数: 69 天

    [LV.6]常住居民II

    1529

    主题

    1600

    帖子

    3323

    积分

    发布组

    积分
    3323
    发表于 2021-4-16 22:46:41 | 显示全部楼层 |阅读模式
    1. 帖子完整标题:捉妖记2 Monster.Hunt.2.2018.CHINESE.1080p.BluRay.x264.DD5.1-CHD 12.54GB
    复制代码
    捉妖记2 Monster.Hunt.2.2018.CHINESE.1080p.BluRay.x264.DD5.1-CHD 12.54GB-1.png


    译  名 Monster Hunt 2
    片  名 捉妖记2
    年  代 2018
    产  地 中国大陆 / 中国香港
    类  别 喜剧 / 动作 / 奇幻 / 古装
    语  言 汉语普通话
    上映日期 2018-02-16(中国大陆)
    IMDb评分  5.3/10 from 1300 users
    IMDb链接  https://www.imdb.com/title/tt6170484
    豆瓣评分 5.0/10 from 296585 users
    豆瓣链接 https://movie.douban.com/subject/26575103/
    片  长 110分钟
    导  演 许诚毅 Raman Hui
    编  剧 吴炜伦 Wai Lun Ng / 陈咏燊 Sunny Chan / 苏亮 Liang Su
    主  演 梁朝伟 Tony Leung Chiu Wai
           白百何 Baihe Bai
           井柏然 Boran Jing
           李宇春 Yuchun Li
           杨祐宁 Tony Yang
           大鹏 Da Peng
           吴君如 Sandra Ng
           曾志伟 Eric Tsang
           黄磊 Lei Huang
           柳岩 Yan Liu
           吴莫愁 Mouchou Wu
           伍嘉成 Humphrey Wu
           赵磊 Lay Zhao
           谷嘉诚 Jason
           彭楚粤 Chuyue Peng
           陈泽希 Emn Chen
           郭子凡 G-Ziven
           肖战 Sean Xiao
           焉栩嘉 Xujia Yan
           夏之光 Zhiguang Xia
           姜超 Chao Jiang
           娄艺潇 Yixiao Lou
           张俪 Li Zhang


    标  签 喜剧 | 搞笑 | 奇幻 | 萌 | 中国大陆 | 古装 | 2018 | 冒险

    简  介   

      上一集与胡巴分别后,天荫(井柏然 饰)带着小岚(白百何 饰)踏上寻父之路,在义薄云天的天师堂堂主云大哥(杨祐宁 饰)的帮助下,二人得知天荫父亲宋戴天的护妖轨迹;而重回永宁村的胡巴再度被妖王追杀,颠沛流离逃亡时结识大赌徒屠四谷(梁朝伟 饰)和一只妖怪,三人一起过着相依为命的生活,但又因屠四谷欠下的巨额赌债横生诸多波折。与此同时 ,江湖盛传小妖王胡巴的重金悬赏令,妖界大军、天师精英、绿林草莽闻风而动,多方势力为抢夺胡巴在清水镇掀起腥风血雨。千钧一发之际,念子心切的天荫和小岚通过天师堂找到胡巴并一起逃离险境。岂料,一场更大的惊天阴谋尾随而至,伺机而动……

    获奖情况  

      第55届台北金马影展(2018)
      金马奖 最佳动作设计(提名) 谷垣健治
      金马奖 最佳视觉效果(提名) 潘国瑜

      第38届香港电影金像奖(2019)
      最佳摄影(提名) 潘耀明
      最佳美术指导(提名) 种田阳平 / 吉约姆·阿瑞托斯 / 李健威
      最佳服装造型设计(提名) 奚仲文
      最佳音响效果(提名) 姚俊轩 / 李耀强
      最佳视觉效果(提名) 潘国瑜

      第4届豆瓣电影年度榜单(2017)
      最值得期待的华语电影
    1. Video
    2. ID                                       : 1
    3. Format                                   : AVC
    4. Format/Info                              : Advanced Video Codec
    5. Format profile                           : High@L4
    6. Format settings                          : CABAC / 4 Ref Frames
    7. Format settings, CABAC                   : Yes
    8. Format settings, ReFrames                : 4 frames
    9. Codec ID                                 : V_MPEG4/ISO/AVC
    10. Duration                                 : 1 h 50 min
    11. Bit rate                                 : 15.0 Mb/s
    12. Width                                    : 1 920 pixels
    13. Height                                   : 804 pixels
    14. Display aspect ratio                     : 2.40:1
    15. Frame rate mode                          : Constant
    16. Frame rate                               : 23.976 (24000/1001/189150) FPS
    17. Color space                              : YUV
    18. Chroma subsampling                       : 4:2:0
    19. Bit depth                                : 8 bits
    20. Scan type                                : Progressive
    21. Bits/(Pixel*Frame)                       : 0.405
    22. Stream size                              : 11.5 GiB (92%)
    23. Writing library                          : x264 core 155 r2867+74 66b5600 t_mod_Custom_2 [High@L4 X86_64]
    24. Encoding settings                        : cabac=1 / ref=4 / deblock=1:-3:-3 / analyse=0x3:0x133 / me=umh / subme=10 / psy=1 / fade_compensate=0.00 / psy_rd=0.95:0.10 / mixed_ref=1 / me_range=48 / chroma_me=1 / trellis=2 / 8x8dct=1 / cqm=0 / deadzone=21,11 / fast_pskip=0 / chroma_qp_offset=-4 / threads=18 / lookahead_threads=3 / sliced_threads=0 / nr=0 / decimate=1 / interlaced=0 / bluray_compat=0 / constrained_intra=0 / fgo=0 / bframes=8 / b_pyramid=2 / b_adapt=2 / b_bias=0 / direct=3 / weightb=1 / open_gop=0 / weightp=2 / keyint=250 / keyint_min=23 / scenecut=40 / intra_refresh=0 / rc_lookahead=30 / rc=2pass / mbtree=0 / bitrate=15000 / ratetol=1.0 / qcomp=0.70 / qpmin=0:0:0 / qpmax=69:69:69 / qpstep=4 / cplxblur=20.0 / qblur=0.5 / vbv_maxrate=35000 / vbv_bufsize=35000 / nal_hrd=none / filler=0 / ip_ratio=1.40 / pb_ratio=1.30 / aq=3:1.00 / aq-sensitivity=10.00 / aq-factor=1.00:1.00:1.00 / aq2=0 / aq3=2:[0.50:0.50]:[0.50:0.50]:[0.50:0.50]:[0.50:0.50] / aq3-sensitivity=10.00 / aq3-factor=[1.00:1.00]:[1.00:1.00]:[1.00:1.00] / aq3-boundary=192:64:24
    25. Language                                 : English
    26. Default                                  : Yes
    27. Forced                                   : No

    28. Audio #1
    29. ID                                       : 2
    30. Format                                   : AC-3
    31. Format/Info                              : Audio Coding 3
    32. Codec ID                                 : A_AC3
    33. Duration                                 : 1 h 50 min
    34. Bit rate mode                            : Constant
    35. Bit rate                                 : 640 kb/s
    36. Channel(s)                               : 6 channels
    37. Channel positions                        : Front: L C R, Side: L R, LFE
    38. Sampling rate                            : 48.0 kHz
    39. Frame rate                               : 31.250 FPS (1536 SPF)
    40. Bit depth                                : 16 bits
    41. Compression mode                         : Lossy
    42. Stream size                              : 505 MiB (4%)
    43. Language                                 : Chinese
    44. Service kind                             : Complete Main
    45. Default                                  : Yes
    46. Forced                                   : No

    47. Audio #2
    48. ID                                       : 3
    49. Format                                   : AC-3
    50. Format/Info                              : Audio Coding 3
    51. Codec ID                                 : A_AC3
    52. Duration                                 : 1 h 50 min
    53. Bit rate mode                            : Constant
    54. Bit rate                                 : 640 kb/s
    55. Channel(s)                               : 6 channels
    56. Channel positions                        : Front: L C R, Side: L R, LFE
    57. Sampling rate                            : 48.0 kHz
    58. Frame rate                               : 31.250 FPS (1536 SPF)
    59. Bit depth                                : 16 bits
    60. Compression mode                         : Lossy
    61. Stream size                              : 505 MiB (4%)
    62. Language                                 : Chinese
    63. Service kind                             : Complete Main
    64. Default                                  : No
    65. Forced                                   : No

    66. Text #1
    67. ID                                       : 4
    68. Format                                   : PGS
    69. Muxing mode                              : zlib
    70. Codec ID                                 : S_HDMV/PGS
    71. Codec ID/Info                            : Picture based subtitle format used on BDs/HD-DVDs
    72. Duration                                 : 1 h 44 min
    73. Bit rate                                 : 24.4 kb/s
    74. Count of elements                        : 2316
    75. Stream size                              : 18.2 MiB (0%)
    76. Language                                 : Chinese
    77. Default                                  : Yes
    78. Forced                                   : No

    79. Text #2
    80. ID                                       : 5
    81. Format                                   : PGS
    82. Muxing mode                              : zlib
    83. Codec ID                                 : S_HDMV/PGS
    84. Codec ID/Info                            : Picture based subtitle format used on BDs/HD-DVDs
    85. Duration                                 : 1 h 44 min
    86. Bit rate                                 : 25.8 kb/s
    87. Count of elements                        : 2412
    88. Stream size                              : 19.2 MiB (0%)
    89. Language                                 : Chinese
    90. Default                                  : No
    91. Forced                                   : No

    92. Menu
    93. 00:00:00.000                             : en:00:00:00.000
    94. 00:05:32.332                             : en:00:05:32.332
    95. 00:16:36.787                             : en:00:16:36.787
    96. 00:25:06.922                             : en:00:25:06.922
    97. 00:36:28.937                             : en:00:36:28.937
    98. 00:46:05.805                             : en:00:46:05.805
    99. 00:55:04.343                             : en:00:55:04.343
    100. 01:04:44.214                             : en:01:04:44.214
    101. 01:14:08.110                             : en:01:14:08.110
    102. 01:22:13.804                             : en:01:22:13.804
    103. 01:31:25.730                             : en:01:31:25.730
    104. 01:41:09.981                             : en:01:41:09.981
    复制代码

    捉妖记2 Monster.Hunt.2.2018.CHINESE.1080p.BluRay.x264.DD5.1-CHD 12.54GB-2.png
    捉妖记2 Monster.Hunt.2.2018.CHINESE.1080p.BluRay.x264.DD5.1-CHD 12.54GB-3.png
    捉妖记2 Monster.Hunt.2.2018.CHINESE.1080p.BluRay.x264.DD5.1-CHD 12.54GB-4.png

    本帖隐藏的内容需要VIP会员才可浏览,您需要升级才可浏览,点击这里升级VIP




    回复

    使用道具 举报

    该用户从未签到

    0

    主题

    4794

    帖子

    2186

    积分

    金牌会员

    Rank: 6Rank: 6

    积分
    2186
    发表于 2021-4-16 22:48:26 | 显示全部楼层
    回复 支持 反对

    使用道具 举报

    该用户从未签到

    0

    主题

    1万

    帖子

    1万

    积分

    论坛元老

    Rank: 8Rank: 8

    积分
    15691
    发表于 2021-4-16 23:25:34 | 显示全部楼层
    回复 支持 反对

    使用道具 举报

    该用户从未签到

    0

    主题

    1003

    帖子

    657

    积分

    高级会员

    Rank: 4

    积分
    657
    发表于 2021-4-17 00:56:00 | 显示全部楼层

    是个好电影!必须要看的!多谢分享!
    回复 支持 反对

    使用道具 举报

    该用户从未签到

    0

    主题

    2万

    帖子

    2万

    积分

    论坛元老

    Rank: 8Rank: 8

    积分
    25556
    发表于 2021-4-17 01:38:41 | 显示全部楼层

    非常精彩的电影,下来收藏,感谢楼主
    回复 支持 反对

    使用道具 举报

    该用户从未签到

    0

    主题

    4794

    帖子

    2186

    积分

    金牌会员

    Rank: 6Rank: 6

    积分
    2186
    发表于 2021-4-17 02:34:17 | 显示全部楼层
    这个帖子不回对不起自己!我想我是一天也不能离开蓝光电影网
    回复 支持 反对

    使用道具 举报

    该用户从未签到

    0

    主题

    529

    帖子

    188

    积分

    注册会员

    Rank: 2

    积分
    188
    发表于 2021-4-17 02:38:47 | 显示全部楼层
    感谢楼主的无私分享!要想蓝光高清电影网好 就靠你我他
    回复 支持 反对

    使用道具 举报

    该用户从未签到

    0

    主题

    1万

    帖子

    1万

    积分

    论坛元老

    Rank: 8Rank: 8

    积分
    16777
    发表于 2021-4-17 04:41:22 | 显示全部楼层
    回复 支持 反对

    使用道具 举报

    该用户从未签到

    0

    主题

    1844

    帖子

    1590

    积分

    金牌会员

    Rank: 6Rank: 6

    积分
    1590
    发表于 2021-4-17 11:29:13 | 显示全部楼层
    回复 支持 反对

    使用道具 举报

    该用户从未签到

    0

    主题

    1万

    帖子

    1万

    积分

    论坛元老

    Rank: 8Rank: 8

    积分
    15691
    发表于 2021-4-17 15:00:49 | 显示全部楼层
    回复 支持 反对

    使用道具 举报

    懒得打字嘛,点击右侧快捷回复 【右侧内容,后台自定义】
    您需要登录后才可以回帖 登录 | 立即注册

    本版积分规则

    郑重声明,本站所有作品片源来自互联网公开渠道,均为网友上传交流学习,影视版权均归原电影公司所有,如有侵犯版权,请与 2322694662@qq.com 联系,我们将立即删除。

    小黑屋|手机版|Archiver|百度统计|投诉|蓝光电影下载

    GMT+8, 2021-6-22 14:42 , Processed in 0.056489 second(s), 24 queries , Gzip On, MemCached On.

    Powered by Discuz! X3.4

    © 2001-2013 Comsenz Inc.

    快速回复 返回顶部 返回列表