快捷导航
查看: 275|回复: 14

[动作] 暗域/隐峰 Hidden.Peaks.2018.1080p.BluRay.x264.DTS-CHD 14.65GB

[复制链接]
  • TA的每日心情
    无聊
    3 天前
  • 签到天数: 61 天

    [LV.6]常住居民II

    1623

    主题

    1684

    帖子

    3125

    积分

    发布组

    积分
    3125
    发表于 2021-4-18 14:24:21 | 显示全部楼层 |阅读模式
    1. 帖子完整标题:暗域/隐峰 Hidden.Peaks.2018.1080p.BluRay.x264.DTS-CHD 14.65GB
    复制代码
    暗域/隐峰 Hidden.Peaks.2018.1080p.BluRay.x264.DTS-CHD 14.65GB-1.png


    译  名 暗域/隐峰
    片  名 Hidden Peaks
    年  代 2015
    产  地 澳大利亚
    类  别 剧情 / 动作 / 冒险
    语  言 英语
    上映日期 2018-04-04(日本DVD发行)
    IMDb评分  3.8/10 from 61 users
    IMDb链接  https://www.imdb.com/title/tt2924488/
    豆瓣评分 /10 from 0 users
    豆瓣链接 https://movie.douban.com/subject/26306951/
    片  长 109分钟

    标  签 动作 | 美国 | 剧情 | 澳大利亚 | 2018 | 犯罪 | 澳大利亚电影 | 惊悚

    简  介

      Two survivors struggle through a dangerous journey in a world shrouded with evil and terror.
    1. Video
    2. ID                                       : 1
    3. Format                                   : AVC
    4. Format/Info                              : Advanced Video Codec
    5. Format profile                           : High@L4
    6. Format settings                          : CABAC / 4 Ref Frames
    7. Format settings, CABAC                   : Yes
    8. Format settings, ReFrames                : 4 frames
    9. Codec ID                                 : V_MPEG4/ISO/AVC
    10. Duration                                 : 1 h 41 min
    11. Bit rate                                 : 19.2 Mb/s
    12. Width                                    : 1 746 pixels
    13. Height                                   : 1 080 pixels
    14. Display aspect ratio                     : 16:10
    15. Frame rate mode                          : Constant
    16. Frame rate                               : 23.976 (24000/1001/189150) FPS
    17. Color space                              : YUV
    18. Chroma subsampling                       : 4:2:0
    19. Bit depth                                : 8 bits
    20. Scan type                                : Progressive
    21. Bits/(Pixel*Frame)                       : 0.425
    22. Stream size                              : 13.6 GiB (93%)
    23. Writing library                          : x264 core 155 r2867+74 66b5600 t_mod_Custom_2 [High@L4 X86_64]
    24. Encoding settings                        : cabac=1 / ref=4 / deblock=1:-3:-3 / analyse=0x3:0x113 / me=umh / subme=10 / psy=1 / fade_compensate=0.00 / psy_rd=0.90:0.10 / mixed_ref=1 / me_range=48 / chroma_me=1 / trellis=2 / 8x8dct=1 / cqm=0 / deadzone=21,11 / fast_pskip=0 / chroma_qp_offset=-2 / threads=18 / lookahead_threads=3 / sliced_threads=0 / nr=0 / decimate=1 / interlaced=0 / bluray_compat=0 / constrained_intra=0 / fgo=0 / bframes=8 / b_pyramid=2 / b_adapt=2 / b_bias=0 / direct=3 / weightb=1 / open_gop=0 / weightp=2 / keyint=250 / keyint_min=23 / scenecut=40 / intra_refresh=0 / rc_lookahead=40 / rc=crf / mbtree=0 / crf=21.5000 / qcomp=0.70 / qpmin=0:0:0 / qpmax=69:69:69 / qpstep=4 / vbv_maxrate=35000 / vbv_bufsize=35000 / crf_max=0.0 / nal_hrd=none / filler=0 / ip_ratio=1.40 / pb_ratio=1.30 / aq=3:0.90 / aq-sensitivity=10.00 / aq-factor=1.00:1.00:1.00 / aq2=0 / aq3=2:[0.50:0.50]:[0.50:0.50]:[0.50:0.50]:[0.50:0.50] / aq3-sensitivity=10.00 / aq3-factor=[1.00:1.00]:[1.00:1.00]:[1.00:1.00] / aq3-boundary=192:64:24
    25. Language                                 : English
    26. Default                                  : Yes
    27. Forced                                   : No
    28. Color range                              : Limited
    29. Matrix coefficients                      : BT.709

    30. Audio
    31. ID                                       : 2
    32. Format                                   : DTS
    33. Format/Info                              : Digital Theater Systems
    34. Codec ID                                 : A_DTS
    35. Duration                                 : 1 h 41 min
    36. Bit rate mode                            : Constant
    37. Bit rate                                 : 1 509 kb/s
    38. Channel(s)                               : 6 channels
    39. Channel positions                        : Front: L C R, Side: L R, LFE
    40. Sampling rate                            : 48.0 kHz
    41. Frame rate                               : 93.750 FPS (512 SPF)
    42. Bit depth                                : 24 bits
    43. Compression mode                         : Lossy
    44. Stream size                              : 1.07 GiB (7%)
    45. Language                                 : English
    46. Default                                  : Yes
    47. Forced                                   : No

    48. Menu
    49. 00:00:00.000                             : en:00:00:00.000
    50. 00:09:08.840                             : en:00:09:08.840
    51. 00:20:07.123                             : en:00:20:07.123
    52. 00:30:15.522                             : en:00:30:15.522
    53. 00:37:40.425                             : en:00:37:40.425
    54. 00:49:24.086                             : en:00:49:24.086
    55. 01:01:11.626                             : en:01:01:11.626
    56. 01:09:48.101                             : en:01:09:48.101
    57. 01:21:03.275                             : en:01:21:03.275
    58. 01:32:54.611                             : en:01:32:54.611
    复制代码

    暗域/隐峰 Hidden.Peaks.2018.1080p.BluRay.x264.DTS-CHD 14.65GB-2.png
    暗域/隐峰 Hidden.Peaks.2018.1080p.BluRay.x264.DTS-CHD 14.65GB-3.png
    本帖隐藏的内容需要VIP会员才可浏览,您需要升级才可浏览,点击这里升级VIP





    回复

    使用道具 举报

    该用户从未签到

    0

    主题

    1577

    帖子

    1051

    积分

    金牌会员

    Rank: 6Rank: 6

    积分
    1051
    发表于 2021-4-18 14:24:52 | 显示全部楼层
    回复 支持 反对

    使用道具 举报

    该用户从未签到

    0

    主题

    4794

    帖子

    2186

    积分

    金牌会员

    Rank: 6Rank: 6

    积分
    2186
    发表于 2021-4-18 14:43:42 | 显示全部楼层

    非常精彩的电影,下来收藏,感谢楼主
    回复 支持 反对

    使用道具 举报

  • TA的每日心情
    开心
    2021-6-9 23:47
  • 签到天数: 13 天

    [LV.3]偶尔看看II

    1

    主题

    1670

    帖子

    1995

    积分

    金牌会员

    Rank: 6Rank: 6

    积分
    1995
    发表于 2021-4-18 15:35:02 | 显示全部楼层
    回复 支持 反对

    使用道具 举报

    该用户从未签到

    0

    主题

    4794

    帖子

    2186

    积分

    金牌会员

    Rank: 6Rank: 6

    积分
    2186
    发表于 2021-4-18 16:45:29 | 显示全部楼层
    这个帖子不回对不起自己!我想我是一天也不能离开蓝光电影网
    回复 支持 反对

    使用道具 举报

    该用户从未签到

    0

    主题

    1577

    帖子

    1051

    积分

    金牌会员

    Rank: 6Rank: 6

    积分
    1051
    发表于 2021-4-18 20:09:55 | 显示全部楼层
    回复 支持 反对

    使用道具 举报

    该用户从未签到

    0

    主题

    3119

    帖子

    2405

    积分

    金牌会员

    Rank: 6Rank: 6

    积分
    2405
    发表于 2021-4-18 21:41:08 | 显示全部楼层
    回复 支持 反对

    使用道具 举报

    该用户从未签到

    0

    主题

    4794

    帖子

    2186

    积分

    金牌会员

    Rank: 6Rank: 6

    积分
    2186
    发表于 2021-4-18 23:58:43 | 显示全部楼层

    是个好电影!必须要看的!多谢分享!
    回复 支持 反对

    使用道具 举报

    该用户从未签到

    0

    主题

    2万

    帖子

    2万

    积分

    论坛元老

    Rank: 8Rank: 8

    积分
    25556
    发表于 2021-4-19 15:45:26 | 显示全部楼层
    回复 支持 反对

    使用道具 举报

  • TA的每日心情
    开心
    昨天 20:50
  • 签到天数: 79 天

    [LV.6]常住居民II

    0

    主题

    315

    帖子

    1000

    积分

    金牌会员

    Rank: 6Rank: 6

    积分
    1000
    发表于 2021-4-20 07:37:52 | 显示全部楼层
    楼主发贴辛苦了,谢谢楼主分享!我觉得蓝光电影网是注册对了!
    回复 支持 反对

    使用道具 举报

    懒得打字嘛,点击右侧快捷回复 【右侧内容,后台自定义】
    您需要登录后才可以回帖 登录 | 立即注册

    本版积分规则

    郑重声明,本站所有作品片源来自互联网公开渠道,均为网友上传交流学习,影视版权均归原电影公司所有,如有侵犯版权,请与 2322694662@qq.com 联系,我们将立即删除。

    小黑屋|手机版|Archiver|百度统计|投诉|蓝光电影下载

    GMT+8, 2021-6-22 16:24 , Processed in 0.058824 second(s), 23 queries , Gzip On, MemCached On.

    Powered by Discuz! X3.4

    © 2001-2013 Comsenz Inc.

    快速回复 返回顶部 返回列表