快捷导航
查看: 281|回复: 12

[剧情] 影像之书 The.Image.Book.2018.1080p.BluRay.x264-USURY 6.56GB

[复制链接]
  • TA的每日心情
    无聊
    3 天前
  • 签到天数: 61 天

    [LV.6]常住居民II

    1623

    主题

    1684

    帖子

    3125

    积分

    发布组

    积分
    3125
    发表于 2021-4-18 17:42:08 | 显示全部楼层 |阅读模式
    1. 帖子完整标题:影像之书 The.Image.Book.2018.1080p.BluRay.x264-USURY 6.56GB
    复制代码
    影像之书 The.Image.Book.2018.1080p.BluRay.x264-USURY 6.56GB-1.png


    译  名 影像之书/Image and Word/The Image Book/The Picture Book/图像策(港)/影像与言语/影像书(港)
    片  名 Le livre d'image
    年  代 2018
    产  地 瑞士,法国
    类  别 剧情
    语  言 法语,英语,阿拉伯语,意大利语,德语
    上映日期 2018-05-11(戛纳电影节)
    IMDb评分  6.2/10 from 2184 users
    IMDb链接  https://www.imdb.com/title/tt5749596/
    豆瓣评分 7.7/10 from 2715 users
    豆瓣链接 https://movie.douban.com/subject/26830774/
    片  长 85分钟
    导  演 让-吕克·戈达尔 Jean-Luc Godard
    编  剧 让-吕克·戈达尔 Jean-Luc Godard
    主  演 让-吕克·戈达尔 Jean-Luc Godard
           巴斯特·基顿 Buster Keaton
           迪米特里·巴兹尔 Dimitri Basil
           埃尔维拉·斯诺 Elvira Snow
           安娜-玛丽·米埃维尔 Anne-Marie Miéville

    标  签 戈达尔 | 法国 | 2018 | 纪录片 | 戛纳电影节 | 实验 | 瑞士 | 剧情

    简  介

      你还记得我们与内心交流的方式吗?梦境是最常见的方式……我们一直思索如此鲜艳的色彩如何能在黑暗中孕育而生,微弱而温和的话语在梦境中响起,讲述着一些重要的、惊奇的、深刻的真理。影像与话语,就像暴雨夜中噩梦。在西方的眼下,天堂失落,战争就在此地……

    获奖情况

      第71届戛纳电影节 ?(2018)
      主竞赛单元金棕榈奖(提名) 让-吕克·戈达尔
      主竞赛单元特别金棕榈奖 让-吕克·戈达尔
      
      第66届圣塞巴斯蒂安国际电影节 ?(2018)
      开放电影大奖(提名) 让-吕克·戈达尔
    1. Video
    2. ID                                       : 1
    3. Format                                   : AVC
    4. Format/Info                              : Advanced Video Codec
    5. Format profile                           : High@L4
    6. Format settings                          : CABAC / 4 Ref Frames
    7. Format settings, CABAC                   : Yes
    8. Format settings, Reference frames        : 4 frames
    9. Codec ID                                 : V_MPEG4/ISO/AVC
    10. Duration                                 : 1 h 28 min
    11. Bit rate                                 : 9 121 kb/s
    12. Width                                    : 1 920 pixels
    13. Height                                   : 1 080 pixels
    14. Display aspect ratio                     : 16:9
    15. Frame rate mode                          : Constant
    16. Frame rate                               : 23.976 (24000/1001/189150) FPS
    17. Color space                              : YUV
    18. Chroma subsampling                       : 4:2:0
    19. Bit depth                                : 8 bits
    20. Scan type                                : Progressive
    21. Bits/(Pixel*Frame)                       : 0.183
    22. Stream size                              : 5.63 GiB (86%)
    23. Writing library                          : x264 core 157 r2969 d4099dd
    24. Encoding settings                        : cabac=1 / ref=4 / deblock=1:-3:-3 / analyse=0x3:0x133 / me=umh / subme=9 / psy=1 / psy_rd=1.00:0.00 / mixed_ref=1 / me_range=16 / chroma_me=1 / trellis=2 / 8x8dct=1 / cqm=0 / deadzone=21,11 / fast_pskip=0 / chroma_qp_offset=-2 / threads=18 / lookahead_threads=1 / sliced_threads=0 / nr=0 / decimate=1 / interlaced=0 / bluray_compat=0 / constrained_intra=0 / bframes=3 / b_pyramid=2 / b_adapt=1 / b_bias=0 / direct=3 / weightb=1 / open_gop=0 / weightp=2 / keyint=240 / keyint_min=24 / scenecut=40 / intra_refresh=0 / rc_lookahead=50 / rc=2pass / mbtree=1 / bitrate=9121 / ratetol=1.0 / qcomp=0.60 / qpmin=0 / qpmax=69 / qpstep=4 / cplxblur=20.0 / qblur=0.5 / ip_ratio=1.40 / aq=1:1.00
    25. Language                                 : English
    26. Default                                  : Yes
    27. Forced                                   : No

    28. Audio
    29. ID                                       : 2
    30. Format                                   : DTS ES
    31. Format/Info                              : Digital Theater Systems
    32. Commercial name                          : DTS-ES Matrix
    33. Codec ID                                 : A_DTS
    34. Duration                                 : 1 h 28 min
    35. Bit rate mode                            : Constant
    36. Bit rate                                 : 1 509 kb/s
    37. Channel(s)                               : 6 channels
    38. Channel(s)_Original                      : 7 channels
    39. ChannelLayout_Original                   : C L R Ls Rs Cs LFE
    40. Sampling rate                            : 48.0 kHz
    41. Frame rate                               : 93.750 FPS (512 SPF)
    42. Bit depth                                : 24 bits
    43. Compression mode                         : Lossy
    44. Stream size                              : 953 MiB (14%)
    45. Language                                 : French
    46. Default                                  : Yes
    47. Forced                                   : No

    48. Text
    49. ID                                       : 3
    50. Format                                   : UTF-8
    51. Codec ID                                 : S_TEXT/UTF8
    52. Codec ID/Info                            : UTF-8 Plain Text
    53. Duration                                 : 1 h 26 min
    54. Bit rate                                 : 19 b/s
    55. Count of elements                        : 463
    56. Stream size                              : 12.2 KiB (0%)
    57. Title                                    : English
    58. Language                                 : English
    59. Default                                  : Yes
    60. Forced                                   : Yes

    61. Menu
    62. 00:00:00.000                             : en:00:00:00.000
    63. 00:11:47.582                             : en:00:11:47.582
    64. 00:20:28.727                             : en:00:20:28.727
    65. 00:26:01.602                             : en:00:26:01.602
    66. 00:33:05.108                             : en:00:33:05.108
    67. 00:37:50.185                             : en:00:37:50.185
    68. 00:48:01.796                             : en:00:48:01.796
    69. 00:55:10.682                             : en:00:55:10.682
    70. 01:06:41.998                             : en:01:06:41.998
    71. 01:16:40.596                             : en:01:16:40.596
    复制代码

    影像之书 The.Image.Book.2018.1080p.BluRay.x264-USURY 6.56GB-2.png
    本帖隐藏的内容需要VIP会员才可浏览,您需要升级才可浏览,点击这里升级VIP





    回复

    使用道具 举报

    该用户从未签到

    0

    主题

    1003

    帖子

    657

    积分

    高级会员

    Rank: 4

    积分
    657
    发表于 2021-4-18 17:42:23 | 显示全部楼层
    回复 支持 反对

    使用道具 举报

    该用户从未签到

    0

    主题

    2万

    帖子

    2万

    积分

    论坛元老

    Rank: 8Rank: 8

    积分
    25556
    发表于 2021-4-18 21:08:30 | 显示全部楼层
    回复 支持 反对

    使用道具 举报

    该用户从未签到

    0

    主题

    2万

    帖子

    2万

    积分

    论坛元老

    Rank: 8Rank: 8

    积分
    25556
    发表于 2021-4-18 22:04:39 | 显示全部楼层
    回复 支持 反对

    使用道具 举报

    该用户从未签到

    0

    主题

    2万

    帖子

    2万

    积分

    论坛元老

    Rank: 8Rank: 8

    积分
    25556
    发表于 2021-4-19 03:03:52 | 显示全部楼层
    回复 支持 反对

    使用道具 举报

    该用户从未签到

    0

    主题

    2万

    帖子

    2万

    积分

    论坛元老

    Rank: 8Rank: 8

    积分
    25556
    发表于 2021-4-19 03:13:14 | 显示全部楼层
    回复 支持 反对

    使用道具 举报

    该用户从未签到

    0

    主题

    1169

    帖子

    837

    积分

    高级会员

    Rank: 4

    积分
    837
    发表于 2021-4-19 03:38:55 | 显示全部楼层
    感谢楼主的无私分享!要想蓝光高清电影网好 就靠你我他
    回复 支持 反对

    使用道具 举报

    该用户从未签到

    0

    主题

    777

    帖子

    465

    积分

    中级会员

    Rank: 3Rank: 3

    积分
    465
    发表于 2021-4-19 09:54:57 | 显示全部楼层
    楼主太厉害了!楼主,电影应该很好看我觉得蓝光电影下载真是个好地方!
    回复 支持 反对

    使用道具 举报

    该用户从未签到

    0

    主题

    2万

    帖子

    2万

    积分

    论坛元老

    Rank: 8Rank: 8

    积分
    25556
    发表于 2021-4-19 15:06:43 | 显示全部楼层
    这个帖子不回对不起自己!我想我是一天也不能离开蓝光电影网
    回复 支持 反对

    使用道具 举报

    该用户从未签到

    0

    主题

    1万

    帖子

    1万

    积分

    论坛元老

    Rank: 8Rank: 8

    积分
    15691
    发表于 2021-4-20 09:03:44 | 显示全部楼层
    回复 支持 反对

    使用道具 举报

    懒得打字嘛,点击右侧快捷回复 【右侧内容,后台自定义】
    您需要登录后才可以回帖 登录 | 立即注册

    本版积分规则

    郑重声明,本站所有作品片源来自互联网公开渠道,均为网友上传交流学习,影视版权均归原电影公司所有,如有侵犯版权,请与 2322694662@qq.com 联系,我们将立即删除。

    小黑屋|手机版|Archiver|百度统计|投诉|蓝光电影下载

    GMT+8, 2021-6-22 15:12 , Processed in 0.080591 second(s), 24 queries , Gzip On, MemCached On.

    Powered by Discuz! X3.4

    © 2001-2013 Comsenz Inc.

    快速回复 返回顶部 返回列表