快捷导航
查看: 265|回复: 23

[喜剧] 战争与敌人/糊涂丘八 At.War.with.the.Army.1950.1080p.BluRay.x264-USURY 6.56GB

[复制链接]
  • TA的每日心情

    2021-4-27 18:29
  • 签到天数: 36 天

    [LV.5]常住居民I

    1162

    主题

    1198

    帖子

    2060

    积分

    发布组

    积分
    2060
    发表于 2021-4-25 22:58:50 | 显示全部楼层 |阅读模式
    1. 帖子完整标题:战争与敌人/糊涂丘八 At.War.with.the.Army.1950.1080p.BluRay.x264-USURY 6.56GB
    复制代码
    战争与敌人/糊涂丘八 At.War.with.the.Army.1950.1080p.BluRay.x264-USURY 6.56GB-1.png


    译  名 战争与敌人/糊涂丘八(港)
    片  名 At War with the Army
    年  代 1950
    产  地 美国
    类  别 喜剧 / 爱情 / 歌舞 / 战争
    语  言 英语
    上映日期 1950-12-13
    IMDb评分  5.7/10 from 2064 users
    IMDb链接  https://www.imdb.com/title/tt0042209/
    豆瓣评分 /10 from 0 users
    豆瓣链接 https://movie.douban.com/subject/1299199/
    片  长 93 分钟
    导  演 哈尔·沃克 Hal Walker
    编  剧 Henry May / 弗雷德·芬克勒霍夫 Fred F. Finklehoffe / James B. Allardice
    主  演 迪恩·马丁 Dean Martin
           杰瑞·刘易斯 Jerry Lewis
           迈克·凯林 Mike Kellin
           吉米·邓迪 Jimmie Dundee
           迪克·斯塔比尔 Dick Stabile
           Ty Perry
           Jean Ruth
           杜威·罗宾逊 Dewey Robinson
           斯蒂芬·罗伯茨 Stephen Roberts
           Angela Greene
           Joe Gray
           Douglas Evans
           Tommy Farrell
           丹尼·代顿 Danny Dayton
           波莉·伯根 Polly Bergen
           Kenneth Forbes

    标  签 美国 | 喜剧 | JerryLewis | DeanMartin | 1950 | 黑白 | 美國 | 歌舞

    简  介

      暂无相关剧情介绍
    1. Video
    2. ID                                       : 1
    3. Format                                   : AVC
    4. Format/Info                              : Advanced Video Codec
    5. Format profile                           : High@L4
    6. Format settings                          : CABAC / 4 Ref Frames
    7. Format settings, CABAC                   : Yes
    8. Format settings, Reference frames        : 4 frames
    9. Codec ID                                 : V_MPEG4/ISO/AVC
    10. Duration                                 : 1 h 32 min
    11. Bit rate                                 : 8 655 kb/s
    12. Width                                    : 1 440 pixels
    13. Height                                   : 1 080 pixels
    14. Display aspect ratio                     : 4:3
    15. Frame rate mode                          : Constant
    16. Frame rate                               : 23.976 FPS
    17. Color space                              : YUV
    18. Chroma subsampling                       : 4:2:0
    19. Bit depth                                : 8 bits
    20. Scan type                                : Progressive
    21. Bits/(Pixel*Frame)                       : 0.232
    22. Stream size                              : 5.59 GiB (85%)
    23. Writing library                          : x264 core 146 r2538 121396c
    24. Encoding settings                        : cabac=1 / ref=4 / deblock=1:0:0 / analyse=0x3:0x133 / me=umh / subme=7 / psy=1 / psy_rd=1.00:0.00 / mixed_ref=1 / me_range=16 / chroma_me=1 / trellis=1 / 8x8dct=1 / cqm=0 / deadzone=21,11 / fast_pskip=0 / chroma_qp_offset=-2 / threads=60 / lookahead_threads=8 / sliced_threads=0 / nr=0 / decimate=1 / interlaced=0 / bluray_compat=0 / constrained_intra=0 / bframes=3 / b_pyramid=2 / b_adapt=2 / b_bias=0 / direct=3 / weightb=1 / open_gop=0 / weightp=2 / keyint=250 / keyint_min=23 / scenecut=40 / intra_refresh=0 / rc_lookahead=50 / rc=2pass / mbtree=1 / bitrate=8655 / ratetol=1.0 / qcomp=0.60 / qpmin=0 / qpmax=69 / qpstep=4 / cplxblur=20.0 / qblur=0.5 / ip_ratio=1.40 / aq=1:1.00
    25. Language                                 : English
    26. Default                                  : Yes
    27. Forced                                   : No

    28. Audio
    29. ID                                       : 2
    30. Format                                   : DTS
    31. Format/Info                              : Digital Theater Systems
    32. Codec ID                                 : A_DTS
    33. Duration                                 : 1 h 32 min
    34. Bit rate mode                            : Constant
    35. Bit rate                                 : 1 509 kb/s
    36. Channel(s)                               : 2 channels
    37. Channel layout                           : L R
    38. Sampling rate                            : 48.0 kHz
    39. Frame rate                               : 93.750 FPS (512 SPF)
    40. Bit depth                                : 24 bits
    41. Compression mode                         : Lossy
    42. Stream size                              : 997 MiB (15%)
    43. Language                                 : English
    44. Default                                  : Yes
    45. Forced                                   : No

    46. Menu
    47. 00:00:00.000                             : en:00:00:00.000
    48. 00:11:49.459                             : en:00:11:49.459
    49. 00:24:13.952                             : en:00:24:13.952
    50. 00:43:48.251                             : en:00:43:48.251
    51. 00:54:24.678                             : en:00:54:24.678
    52. 01:06:29.319                             : en:01:06:29.319
    53. 01:14:34.261                             : en:01:14:34.261
    54. 01:20:54.183                             : en:01:20:54.183
    复制代码

    战争与敌人/糊涂丘八 At.War.with.the.Army.1950.1080p.BluRay.x264-USURY 6.56GB-2.png
    战争与敌人/糊涂丘八 At.War.with.the.Army.1950.1080p.BluRay.x264-USURY 6.56GB-3.png
    战争与敌人/糊涂丘八 At.War.with.the.Army.1950.1080p.BluRay.x264-USURY 6.56GB-4.png
    本帖隐藏的内容需要VIP会员才可浏览,您需要升级才可浏览,点击这里升级VIP





    回复

    使用道具 举报

    该用户从未签到

    0

    主题

    3847

    帖子

    2186

    积分

    金牌会员

    Rank: 6Rank: 6

    积分
    2186
    发表于 2021-4-25 22:59:42 | 显示全部楼层

    下载保存,谢谢楼主

    点评

    QQ 12615137 =出-售 桑=拿=女 按=摩=女 模=特= 外=围=女=资=料 良=家 学=生=妹=信=息  发表于 3 天前
    回复 支持 反对

    使用道具 举报

    该用户从未签到

    0

    主题

    1万

    帖子

    1万

    积分

    论坛元老

    Rank: 8Rank: 8

    积分
    14259
    发表于 2021-4-25 23:04:36 | 显示全部楼层
    感谢楼主的无私分享!要想蓝光高清电影网好 就靠你我他
    回复 支持 反对

    使用道具 举报

  • TA的每日心情
    开心
    2021-4-27 06:04
  • 签到天数: 2 天

    [LV.1]初来乍到

    0

    主题

    10

    帖子

    30

    积分

    新手上路

    Rank: 1

    积分
    30
    发表于 2021-4-26 05:29:24 | 显示全部楼层

    这东西我收了!谢谢楼主!蓝光电影网真好!
    回复 支持 反对

    使用道具 举报

    该用户从未签到

    0

    主题

    2万

    帖子

    2万

    积分

    论坛元老

    Rank: 8Rank: 8

    积分
    22944
    发表于 2021-4-26 05:29:24 | 显示全部楼层

    非常精彩的电影,下来收藏,感谢楼主
    回复 支持 反对

    使用道具 举报

    该用户从未签到

    0

    主题

    1万

    帖子

    1万

    积分

    论坛元老

    Rank: 8Rank: 8

    积分
    14259
    发表于 2021-4-26 05:29:24 | 显示全部楼层
    回复 支持 反对

    使用道具 举报

    该用户从未签到

    0

    主题

    2092

    帖子

    1789

    积分

    金牌会员

    Rank: 6Rank: 6

    积分
    1789
    发表于 2021-4-26 08:48:26 | 显示全部楼层
    回复 支持 反对

    使用道具 举报

    该用户从未签到

    0

    主题

    2万

    帖子

    2万

    积分

    论坛元老

    Rank: 8Rank: 8

    积分
    22944
    发表于 2021-4-26 09:04:05 | 显示全部楼层
    回复 支持 反对

    使用道具 举报

    该用户从未签到

    0

    主题

    3681

    帖子

    2875

    积分

    金牌会员

    Rank: 6Rank: 6

    积分
    2875
    发表于 2021-4-26 09:14:21 | 显示全部楼层
    这个帖子不回对不起自己!我想我是一天也不能离开蓝光电影网
    回复 支持 反对

    使用道具 举报

    该用户从未签到

    0

    主题

    715

    帖子

    465

    积分

    中级会员

    Rank: 3Rank: 3

    积分
    465
    发表于 2021-4-26 10:47:52 | 显示全部楼层
    回复 支持 反对

    使用道具 举报

    懒得打字嘛,点击右侧快捷回复 【右侧内容,后台自定义】
    您需要登录后才可以回帖 登录 | 立即注册

    本版积分规则

    郑重声明,本站所有作品片源来自互联网公开渠道,均为网友上传交流学习,影视版权均归原电影公司所有,如有侵犯版权,请与 2322694662@qq.com 联系,我们将立即删除。

    小黑屋|手机版|Archiver|百度统计|投诉|蓝光电影下载

    GMT+8, 2021-5-11 11:31 , Processed in 0.027556 second(s), 22 queries , Gzip On, MemCached On.

    Powered by Discuz! X3.4

    © 2001-2013 Comsenz Inc.

    快速回复 返回顶部 返回列表